Ссылка на приватное зеркало всего за 1$. Внимание количество ограничено!!!

iTunes

1+1

iTunes

мы

MV0

1

WEB-DLRip

Джокер

Пифагор

Ведьмак / The Witcher сериал

iTunes

ПШазам

iTunes

Оно 2

iTunes

30
pack

Вам бонус

ВАЖНО

!!Акция!!

Alien_RageХит недели

RePack

Resident Evil 21

ИГРА 18+

pack

RePack

jed

!!Акция!!

Alien_Rage

RePack

fifa19

RePack

Assassins Creed: Odyssey

RePack

NEED FOR SPEED™ PAYBACK

4 сезон

9 сезон

Бесстыжие 9 сезон

Все сериалы

все сериалы на PB.wtf

RePack

FAR CRY 5
  

Васаби / Wasabi (Жерар Кравчик) [2001, боевик, триллер, драма, HDRip-AVC, DUB] от R.G.Resident piratbit.pw

Васаби через торрент piratbit.pw

Размер: 2.14 GB | Добавлен: 4 года 2 мес. назад | Торрент скачан:253 раза
Скачать  

07-12-2015 15:24 Васаби Скачать торрент  

Васаби / Wasabi
««Маленький переполох в большом Токио»»

Год выпуска: 2001
Страна: Франция, Япония
Жанр: боевик, триллер, драма, комедия, криминал
Продолжительность: 01:33:44
Перевод: Дубляж
Режиссер: Жерар Кравчик
В ролях:

Жан Рено (Hubert Fiorentini), Риоко Хиросуэ (Yumi Yoshimido), Мишель Мюллер (Maurice «Momo»), Ёси Оида (Takanawa), Кароль Буке (Sofia), Кристиан Синниже (Le Squale), Александр Брик (Irène), Жан-Марк Монтальто (Olivier), Вероник Бальм (Betty), Фабио Дзенони (Josy), Хирата Харухико (Ishibashi), Мишель Скорно (Van Eyck)
Описание:
Юбер Фиорентини - французский полицейский, исполняя последнюю волю когда-то им любимой японской девушки, вынужден отправиться в далекую Японию, где ему приходится встретиться со старым другом и дочерью, о существовании которой он даже не подозревал.
А так же получить наследство в 200 млн. долларов, и познакомиться с японской якудзой, охотящейся за заманчивой суммой...
Мировая премьера: 31 октября 2001

MPAA: R - Лицам до 17 лет обязательно присутствие взрослого
Качество: HDRip-AVC Rip by schultz R.G.Resident
Формат: MKV
Видео: AVC, 1152x488 (2.35:1), 2813 kbps, 24 fps, 0,208 bpp
Аудио: AC3 / 5.1 / 48 kHz / 448 kbps / 16 bit

Код:

x264 [info]: frame I:1390  Avg QP:16.65  size: 92683
x264 [info]: frame P:29540 Avg QP:19.94  size: 30895
x264 [info]: frame B:104052 Avg QP:21.60  size:  8851
General
Unique ID                                : 236086481266639079105748744191543495446 (0xB19C9A3528BB680C8900A44B96FA4B16)
Complete name                            : D:\download\Wasabi.2001.HDRip-AVC by schultz R.G.Resident.mkv
Format                                   : Matroska
Format version                           : Version 2
File size                                : 2.14 GiB
Duration                                 : 1h 33mn
Overall bit rate                         : 3 262 Kbps
Encoded date                             : UTC 2015-12-07 14:03:47
Writing application                      : mkvmerge v6.1.0 ('Old Devil') built on Mar  4 2013 09:10:42
Writing library                          : libebml v1.3.0 + libmatroska v1.4.0

Video
ID                                       : 1
Format                                   : AVC
Format/Info                              : Advanced Video Codec
Format profile                           : High@L4.1
Format settings, CABAC                   : Yes
Format settings, ReFrames                : 12 frames
Codec ID                                 : V_MPEG4/ISO/AVC
Duration                                 : 1h 33mn
Bit rate                                 : 2 813 Kbps
Width                                    : 1 152 pixels
Height                                   : 488 pixels
Display aspect ratio                     : 2.35:1
Frame rate                               : 24.000 fps
Color space                              : YUV
Chroma subsampling                       : 4:2:0
Bit depth                                : 8 bits
Scan type                                : Progressive
Bits/(Pixel*Frame)                       : 0.208
Stream size                              : 1.80 GiB (84%)
Writing library                          : x264 core 130 r2273 b3065e6
Encoding settings                        : cabac=1 / ref=12 / deblock=1:-2:-2 / analyse=0x3:0x113 / me=umh / subme=11 / psy=1 / psy_rd=1.00:0.15 / mixed_ref=1 / me_range=16 / chroma_me=1 / trellis=2 / 8x8dct=1 / cqm=0 / deadzone=21,11 / fast_pskip=1 / chroma_qp_offset=-3 / threads=12 / lookahead_threads=2 / sliced_threads=0 / nr=0 / decimate=0 / interlaced=0 / bluray_compat=0 / constrained_intra=0 / bframes=9 / b_pyramid=2 / b_adapt=2 / b_bias=0 / direct=3 / weightb=1 / open_gop=0 / weightp=2 / keyint=240 / keyint_min=23 / scenecut=40 / intra_refresh=0 / rc_lookahead=40 / rc=2pass / mbtree=1 / bitrate=2813 / ratetol=1.0 / qcomp=0.60 / qpmin=0 / qpmax=69 / qpstep=4 / cplxblur=20.0 / qblur=0.5 / vbv_maxrate=17500 / vbv_bufsize=14000 / nal_hrd=none / ip_ratio=1.40 / aq=1:0.80
Default                                  : Yes
Forced                                   : No

Audio
ID                                       : 2
Format                                   : AC-3
Format/Info                              : Audio Coding 3
Mode extension                           : CM (complete main)
Codec ID                                 : A_AC3
Duration                                 : 1h 33mn
Bit rate mode                            : Constant
Bit rate                                 : 448 Kbps
Channel(s)                               : 6 channels
Channel positions                        : Front: L C R, Side: L R, LFE
Sampling rate                            : 48.0 KHz
Bit depth                                : 16 bits
Compression mode                         : Lossy
Stream size                              : 300 MiB (14%)
Default                                  : Yes
Forced                                   : No


скриншот   скриншот   скриншот   скриншот  
piratbit.pw



Скачать Васаби через торрент http://pic1.kartinco.top/images/10/hgud2.jpg Скачать фильм Васаби через торрент бесплантно в хорошем качестве Описание: Юбер Фиорентини - французский полицейский, исполняя последнюю волю когда-то им любимой японской девушки, вынужден отправиться в ... 10 10 7
Info! Золотая раздача, скачанное не засчитывается.
Торрент: Зарегистрирован [2015-12-07 15:24] · скачан: 253 раз
Статус: √ проверено
Размер: 2.14 GB
Как cкачать? Как скачать Васаби через торрент | qTorrent

28-11-2019 20:33  

Отключить всю рекламу на сайте

07-12-2015 16:54 Васаби Скачать торрент  

отличный фильмец, как раз собирался пересмотреть, спасибо)piratbit.pw



07-12-2015 16:57 Васаби Скачать торрент  

кто не смотрел - обязательно посмотрите !!!
эти французы в широкоугольной камере (крупным планом) , просто уже вызывают смех ))piratbit.pw



08-12-2015 16:46 Васаби Скачать торрент  

Ненлохая комедия на разок безнапрягов можно позырить!:-)piratbit.pw



    Дорогой пользователь! Огромная просьба, поблагодарите релизера, оцените раздачу и оставьте свои комментарий, если Вы скачали Васаби через торрент бесплатно! Внесите свою лепту в развитие PiratBit!
    Комментировать посты могут только пользователи прошедшие не сложную регистрацию
    Показать сообщения:    

    Васаби через торрент
    Скачать бесплатно Васаби
    Васаби скачать торрент
    Васаби смотреть онлайн
    Cкачать фильм Васаби бесплатно
    Васаби скачать торрент в хорошем качестве
    Васаби смотреть онлайн бесплатно в хорошем качестве


    Вы не можете начинать темы
    Вы не можете отвечать на сообщения
    Вы не можете редактировать свои сообщения
    Вы не можете удалять свои сообщения
    Вы не можете голосовать в опросах
    Вы не можете прикреплять файлы к сообщениям
    Вы можете скачивать файлы