Ссылка на приватное зеркало всего за 1$. Внимание количество ограничено!!!

iTunes

1+1

iTunes

мы

MV0

1

WEB-DLRip

Джокер

Пифагор

Ведьмак / The Witcher сериал

iTunes

ПШазам

iTunes

Оно 2

iTunes

30
pack

Вам бонус

ВАЖНО

!!Акция!!

Alien_RageХит недели

RePack

Resident Evil 21

ИГРА 18+

pack

RePack

jed

!!Акция!!

Alien_Rage

RePack

fifa19

RePack

Assassins Creed: Odyssey

RePack

NEED FOR SPEED™ PAYBACK

4 сезон

9 сезон

Бесстыжие 9 сезон

Все сериалы

все сериалы на PB.wtf

RePack

FAR CRY 5
  

Достучаться до небес / Knockin' on Heaven's Door (Томас Ян) [1997, драма, комедия, криминал, BDRip-AVC, от R.G.Resident] MVO piratbit.pw

Достучаться до небес через торрент piratbit.pw

Размер: 2.12 GB | Добавлен: 4 года 2 мес. назад | Торрент скачан:26 раз
Скачать  

07-12-2015 07:40 Достучаться до небес Скачать торрент  

Достучаться до небес / Knockin' on Heaven's Door
««Быстрый автомобиль, миллион марок в багажнике, и всего одна неделя жить»»

Год выпуска: 1997
Страна: Германия
Жанр: драма, комедия, криминал
Продолжительность: 01:28:56
Перевод: Профессиональный (многоголосый)
Режиссер: Томас Ян
В ролях:

Тиль Швайгер (Martin Brest), Ян Йозеф Лиферс (Rudi Wurlitzer), Тьерри Ван Вервеке (Henk - der Belgier), Мориц Бляйбтрой (Abdul - der Araber), Хуб Стапель (Frankie «Boy» Beluga), Леонард Лансинк (Kommissar Schneider), Ральф Херфорт (Assistent Keller), Корнелия Фробёсс (Frau Brest - Martins Mutter), Рутгер Хауэр (Curtiz), Уилли Томчик (Autoverkäufer), Кристиана Пауль (Verkäuferin Boutique), Ханнес Енике (Motorrad-Polizist)
Описание:
Судьба сводит героев картины в больнице, где врачи выносят им смертный приговор. Счет времени их жизней идет на часы. Дальнейшие события в фильме разворачиваются в стремительном темпе. Украв машину с миллионом немецких марок в багажнике, они сбегают из больницы.
Их преследуют наемные убийцы, они становятся грабителями поневоле, за ними гонится полиция, они попадают в бордель. Но тем не менее продолжают мчаться вперед, навстречу своей судьбе.
Мировая премьера: 20 февраля 1997

MPAA: R - Лицам до 17 лет обязательно присутствие взрослого
Качество: BDRip-AVC Rip by schultz R.G.Resident
Формат: MKV
Видео: AVC, 1152x488 (2.35:1), 3023 kbps, 23,976 fps, 0,224 bpp
Аудио: AC3 / 5.1 / 48 kHz / 384 kbps / 16 bit

Код:

x264 [info]: frame I:1126  Avg QP:18.46  size: 75527
x264 [info]: frame P:25133 Avg QP:21.59  size: 27931
x264 [info]: frame B:101684 Avg QP:23.59  size: 12087
General
Unique ID                                : 186028967497784076768801478407278541026 (0x8BF3E03B29804F01B005E29CEC7BB8E2)
Complete name                            : D:\download\Knockin on Heavens Door 1997 BDRip-AVC by schultz R.G.Resident.mkv
Format                                   : Matroska
Format version                           : Version 2
File size                                : 2.12 GiB
Duration                                 : 1h 28mn
Overall bit rate                         : 3 408 Kbps
Encoded date                             : UTC 2015-12-07 02:30:23
Writing application                      : mkvmerge v6.1.0 ('Old Devil') built on Mar  4 2013 09:10:42
Writing library                          : libebml v1.3.0 + libmatroska v1.4.0

Video
ID                                       : 1
Format                                   : AVC
Format/Info                              : Advanced Video Codec
Format profile                           : High@L4.1
Format settings, CABAC                   : Yes
Format settings, ReFrames                : 12 frames
Codec ID                                 : V_MPEG4/ISO/AVC
Duration                                 : 1h 28mn
Bit rate                                 : 3 023 Kbps
Width                                    : 1 152 pixels
Height                                   : 488 pixels
Display aspect ratio                     : 2.35:1
Frame rate                               : 23.976 fps
Color space                              : YUV
Chroma subsampling                       : 4:2:0
Bit depth                                : 8 bits
Scan type                                : Progressive
Bits/(Pixel*Frame)                       : 0.224
Stream size                              : 1.84 GiB (87%)
Writing library                          : x264 core 130 r2273 b3065e6
Encoding settings                        : cabac=1 / ref=12 / deblock=1:-2:-2 / analyse=0x3:0x113 / me=umh / subme=10 / psy=1 / psy_rd=1.00:0.15 / mixed_ref=1 / me_range=16 / chroma_me=1 / trellis=2 / 8x8dct=1 / cqm=0 / deadzone=21,11 / fast_pskip=1 / chroma_qp_offset=-3 / threads=12 / lookahead_threads=2 / sliced_threads=0 / nr=0 / decimate=0 / interlaced=0 / bluray_compat=0 / constrained_intra=0 / bframes=9 / b_pyramid=2 / b_adapt=2 / b_bias=0 / direct=3 / weightb=1 / open_gop=0 / weightp=2 / keyint=240 / keyint_min=23 / scenecut=40 / intra_refresh=0 / rc_lookahead=40 / rc=2pass / mbtree=1 / bitrate=3023 / ratetol=1.0 / qcomp=0.60 / qpmin=0 / qpmax=69 / qpstep=4 / cplxblur=20.0 / qblur=0.5 / vbv_maxrate=17500 / vbv_bufsize=14000 / nal_hrd=none / ip_ratio=1.40 / aq=1:0.80
Default                                  : Yes
Forced                                   : No

Audio
ID                                       : 2
Format                                   : AC-3
Format/Info                              : Audio Coding 3
Mode extension                           : CM (complete main)
Codec ID                                 : A_AC3
Duration                                 : 1h 28mn
Bit rate mode                            : Constant
Bit rate                                 : 384 Kbps
Channel(s)                               : 6 channels
Channel positions                        : Front: L C R, Side: L R, LFE
Sampling rate                            : 48.0 KHz
Bit depth                                : 16 bits
Compression mode                         : Lossy
Stream size                              : 244 MiB (11%)
Default                                  : Yes
Forced                                   : No


скриншот   скриншот   скриншот   скриншот  
piratbit.pw



Скачать Достучаться до небес через торрент http://pic1.kartinco.top/images/10/ejpqs.jpg Скачать фильм Достучаться до небес через торрент бесплантно в хорошем качестве Описание: Судьба сводит героев картины в больнице, где врачи выносят им смертный приговор. Счет времени их жизней идет на часы. Дальнейшие ... 9.9 10 14
Info! Золотая раздача, скачанное не засчитывается.
Торрент: Зарегистрирован [2015-12-07 07:40] · скачан: 26 раз
Статус: √ проверено
Размер: 2.12 GB
Как cкачать? Как скачать Достучаться до небес через торрент | qTorrent

28-11-2019 20:33  

Отключить всю рекламу на сайте

07-12-2015 08:53 Достучаться до небес Скачать торрент  

bober100 писал(а):

офигенный фильм!!!

Обязательно к просмотру!
Качать не буду. В коллекции уже есть.piratbit.pw



24-07-2017 14:21 Достучаться до небес Скачать торрент  

Блин, я понимаю что раздача старая! Но пожалуйста, дайте скорости!!!piratbit.pw



    Дорогой пользователь! Огромная просьба, поблагодарите релизера, оцените раздачу и оставьте свои комментарий, если Вы скачали Достучаться до небес через торрент бесплатно! Внесите свою лепту в развитие PiratBit!
    Комментировать посты могут только пользователи прошедшие не сложную регистрацию
    Показать сообщения:    

    Достучаться до небес через торрент
    Скачать бесплатно Достучаться до небес
    Достучаться до небес скачать торрент
    Достучаться до небес смотреть онлайн
    Cкачать фильм Достучаться до небес бесплатно
    Достучаться до небес скачать торрент в хорошем качестве
    Достучаться до небес смотреть онлайн бесплатно в хорошем качестве


    Вы не можете начинать темы
    Вы не можете отвечать на сообщения
    Вы не можете редактировать свои сообщения
    Вы не можете удалять свои сообщения
    Вы не можете голосовать в опросах
    Вы не можете прикреплять файлы к сообщениям
    Вы можете скачивать файлы