Ссылка на приватное зеркало всего за 1$. Внимание количество ограничено!!!

iTunes

1+1

iTunes

мы

MV0

1

WEB-DLRip

Джокер

Пифагор

Ведьмак / The Witcher сериал

iTunes

ПШазам

iTunes

Оно 2

iTunes

30
pack

Вам бонус

ВАЖНО

!!Акция!!

Alien_RageХит недели

RePack

Resident Evil 21

ИГРА 18+

pack

RePack

jed

!!Акция!!

Alien_Rage

RePack

fifa19

RePack

Assassins Creed: Odyssey

RePack

NEED FOR SPEED™ PAYBACK

4 сезон

9 сезон

Бесстыжие 9 сезон

Все сериалы

все сериалы на PB.wtf

RePack

FAR CRY 5
  

Ни минуты покоя / Une heure de tranquillité (Патрис Леконт) [2014, комедия, HDRip-AVC, Дубляж] от R.G. Resident piratbit.pw

Ни минуты покоя через торрент piratbit.pw

Раздают: 1 [ 0 KB/s ]
Размер: 1.46 GB | Добавлен: 4 года 2 мес. назад | Торрент скачан:422 раза
Скачать  

06-12-2015 09:01 Ни минуты покоя Скачать торрент  


Ни минуты покоя / Une heure de tranquillité
««Эгоист?.. Я?»»

ИНФОРМАЦИЯ:
Год выпуска:2014
Страна: Франция
Жанр: комедия
Продолжительность: 01:19:10
Перевод: Дубляж - [Лицензия / iTunes]
Режиссер: Патрис Леконт

В Ролях:


Кристиан Клавье (Michel Leproux), Кароль Буке (Nathalie Leproux), Валери Боннетон (Elsa), Росси де Пальма (Maria), Стефан Де Гродт (Pavel), Себастьен Кастро (Sébastien Leproux), Кристиан Шарметан (Pierre), Арно Анриет (Léo), Рикардо Арсиага (Le Philippin), Элиша Камачо (Diana), Мартин Борг (La gardienne), Бриджитт Лукас (Une voisine)

Описание:
У дантиста Мишеля Лепру - выходной. Поэтому он решил неспешно прогуляться по блошиному рынку, радуясь жизни. Но, раскопав в развалах древний (1958 года выпуска) виниловый диск с концертом кларнетиста Нила Юара, Мишель помчался домой, чтобы срочно послушать любимого музыканта.
Но! Весь мир как будто сговорился лишить врача-меломана счастья. Жена потребовала серьезного разговора «о нас». В любовнице заговорила совесть, и она (любовница, а не совесть) решила во всем признаться жене Мишеля. Работяги-иммигранты устроили в квартире потоп. Взрослый сын в борьбе с буржуазными устоями привел на постой многочисленную филиппинскую семью. А Мишелю в этом бедламе нужно найти час, всего лишь час, чтобы послушать любимого музыканта...

  • Мировая премьера:31 декабря 2014

    ТЕХ.ДАННЫЕ:
    Качество: HDRip-AVCАвтор рипа: by Ворон / R.G. Resident
    Формат: MKV
    Видео: AVC, 1060x444 (2.40:1), 2252 kbps, 23,976 fps, 0,200 bpp
    Аудио: русский / AC3 / 5.1 / 48 kHz / 384 kbps / 16 bit ||


    Код:

    x264 [info]: frame I:1002  Avg QP:14.95  size: 75364
    x264 [info]: frame P:29054 Avg QP:18.12  size: 23228
    x264 [info]: frame B:83836 Avg QP:20.02  size:  6988

    General
    Unique ID : 246871381131881499147611225194725689878 (0xB9B9B2D315F1B2739390AEE69AB0CA16)
    Complete name : D:\Торенты\Раздачи\Ни минуты покоя.2015.HDRip-AVC_R.G. Resident.mkv
    Format : Matroska
    Format version : Version 4 / Version 2
    File size : 1.46 GiB
    Duration : 1h 19mn
    Overall bit rate : 2 637 Kbps
    Movie name : R.G. Resident_pb.
    Encoded date : UTC 2015-12-06 08:59:09
    Writing application : mkvmerge v6.7.0 ('Back to the Ground') 64bit built on Jan 8 2014 15:10:52
    Writing library : libebml v1.3.0 + libmatroska v1.4.1
    Attachment : Yes

    Video
    ID : 1
    Format : AVC
    Format/Info : Advanced Video Codec
    Format profile : High@L4.1
    Format settings, CABAC : Yes
    Format settings, ReFrames : 12 frames
    Codec ID : V_MPEG4/ISO/AVC
    Duration : 1h 19mn
    Bit rate : 2 252 Kbps
    Width : 1 060 pixels
    Height : 444 pixels
    Display aspect ratio : 2.40:1
    Frame rate : 23.976 fps
    Color space : YUV
    Chroma subsampling : 4:2:0
    Bit depth : 8 bits
    Scan type : Progressive
    Bits/(Pixel*Frame) : 0.200
    Stream size : 1.22 GiB (83%)
    Title : R.G. Resident_pb.
    Writing library : x264 core 146 r2538 121396c
    Encoding settings : cabac=1 / ref=12 / deblock=1:-2:-2 / analyse=0x3:0x113 / me=umh / subme=11 / psy=1 / psy_rd=1.00:0.00 / mixed_ref=1 / me_range=48 / chroma_me=1 / trellis=2 / 8x8dct=1 / cqm=0 / deadzone=21,11 / fast_pskip=0 / chroma_qp_offset=-2 / threads=6 / lookahead_threads=1 / sliced_threads=0 / nr=0 / decimate=0 / interlaced=0 / bluray_compat=0 / constrained_intra=0 / bframes=13 / b_pyramid=2 / b_adapt=2 / b_bias=0 / direct=3 / weightb=1 / open_gop=0 / weightp=2 / keyint=250 / keyint_min=23 / scenecut=40 / intra_refresh=0 / rc_lookahead=60 / rc=2pass / mbtree=0 / bitrate=2252 / ratetol=1.0 / qcomp=0.60 / qpmin=0 / qpmax=69 / qpstep=4 / cplxblur=20.0 / qblur=0.5 / vbv_maxrate=14000 / vbv_bufsize=14000 / nal_hrd=none / filler=0 / ip_ratio=1.40 / pb_ratio=1.30 / aq=1:0.80
    Language : Russian
    Default : Yes
    Forced : No

    Audio
    ID : 2
    Format : AC-3
    Format/Info : Audio Coding 3
    Mode extension : CM (complete main)
    Codec ID : A_AC3
    Duration : 1h 19mn
    Bit rate mode : Constant
    Bit rate : 384 Kbps
    Channel(s) : 6 channels
    Channel positions : Front: L C R, Side: L R, LFE
    Sampling rate : 48.0 KHz
    Bit depth : 16 bits
    Compression mode : Lossy
    Stream size : 217 MiB (15%)
    Title : DUB- R.G. Resident_pb.
    Language : Russian
    Default : Yes
    Forced : No
    Скриншоты:

    © Оформление by .::Ворон::.
    piratbit.pw



  • Скачать Ни минуты покоя через торрент http://pic.kartinco.top/images/6/ordi9.jpg Скачать фильм Ни минуты покоя через торрент бесплантно в хорошем качестве Описание: У дантиста Мишеля Лепру - выходной. Поэтому он решил неспешно прогуляться по блошиному рынку, радуясь жизни. Но, раскопав в ... 9.7 10 7
    Info! Золотая раздача, скачанное не засчитывается.
    Торрент: Зарегистрирован [2015-12-06 09:02] · скачан: 422 раз
    Статус: √ проверено
    Размер: 1.46 GB
    Как cкачать? Как скачать Ни минуты покоя через торрент | qTorrent

    28-11-2019 20:33  

    Отключить всю рекламу на сайте

      Дорогой пользователь! Огромная просьба, поблагодарите релизера, оцените раздачу и оставьте свои комментарий, если Вы скачали Ни минуты покоя через торрент бесплатно! Внесите свою лепту в развитие PiratBit!
      Комментировать посты могут только пользователи прошедшие не сложную регистрацию
      Показать сообщения:    

      Ни минуты покоя через торрент
      Скачать бесплатно Ни минуты покоя
      Ни минуты покоя скачать торрент
      Ни минуты покоя смотреть онлайн
      Cкачать фильм Ни минуты покоя бесплатно
      Ни минуты покоя скачать торрент в хорошем качестве
      Ни минуты покоя смотреть онлайн бесплатно в хорошем качестве


      Вы не можете начинать темы
      Вы не можете отвечать на сообщения
      Вы не можете редактировать свои сообщения
      Вы не можете удалять свои сообщения
      Вы не можете голосовать в опросах
      Вы не можете прикреплять файлы к сообщениям
      Вы можете скачивать файлы