Ссылка на приватное зеркало всего за 1$. Внимание количество ограничено!!!

iTunes

1+1

iTunes

мы

MV0

1

WEB-DLRip

Джокер

Пифагор

Ведьмак / The Witcher сериал

iTunes

ПШазам

iTunes

Оно 2

iTunes

30
pack

Вам бонус

ВАЖНО

!!Акция!!

Alien_RageХит недели

RePack

Resident Evil 21

ИГРА 18+

pack

RePack

jed

!!Акция!!

Alien_Rage

RePack

fifa19

RePack

Assassins Creed: Odyssey

RePack

NEED FOR SPEED™ PAYBACK

4 сезон

9 сезон

Бесстыжие 9 сезон

Все сериалы

все сериалы на PB.wtf

RePack

FAR CRY 5
  

Каникулы / Vacation (Джон Фрэнсис Дейли, Джонатан М. Голдштейн) [2015, комедия, приключения, WEB-DLRip-AVC, Дубляж] iTunes] R.G.Resident piratbit.pw

Каникулы через торрент piratbit.pw

Размер: 2.17 GB | Добавлен: 4 года 2 мес. назад | Торрент скачан:483 раза
Скачать  

05-12-2015 15:02 Каникулы Скачать торрент  

Каникулы / Vacation
««И что могло пойти не так»»


Год выпуска: 2015
Страна: США
Жанр: комедия, приключения
Продолжительность: 01:38:59
Перевод: Дубляж - [Лицензия / iTunes]
Режиссер: Джон Фрэнсис Дейли, Джонатан М. Голдштейн
В ролях:

Эд Хелмс (Rusty Griswold), Кристина Эпплгейт (Debbie Griswold), Скайлер Джизондо (James Griswold), Стил Стеббинс (Kevin Griswold), Крис Хемсворт (Stone Crandall), Лесли Манн (Audrey Crandall), Чеви Чейз (Clark Griswold), Беверли Д’Анджело (Ellen Griswold), Чарли Дэй (Chad), Катрин Миссал (Adena), Рон Ливингстон (Ethan), Норман Ридус (Trucker)
Описание:
Расти Гризвольд - молодой отец и примерный семьянин, который очень хочет сплотить семью и воссоздать каникулы из своего детства. Вместе с супругой и двумя сыновьями он решает совершить незабываемое путешествие через всю страну, конечной целью которого станет самый лучший тематический парк Америки. Все тщательно спланировав, они отправляются в дорогу, надеясь, что их ждет очень веселое и увлекательное путешествие.
В начале пути все происходит как нельзя лучше, но чем дальше они отдаляются от дома, тем больше проблем их ждет впереди. Все пошло совсем не так, как планировал Расти, но он не собирается останавливаться и готов сделать все возможное для того, чтобы добраться до пункта назначения и подарить своей семье лучшие каникулы...
Мировая премьера: 29 июля 2015

MPAA: R - Лицам до 17 лет обязательно присутствие взрослого
Качество: WEB-DLRip-AVC Rip by schultz R.G.Resident
Формат: MKV
Видео: AVC, 1152x480 (2.40:1), 2756 kbps, 23,976 fps, 0,208 bpp
Аудио: AC3 / 5.1 / 48 kHz / 384 kbps / 16 bit

Код:

x264 [info]: frame I:1428  Avg QP:16.06  size: 76901
x264 [info]: frame P:37730 Avg QP:17.27  size: 29079
x264 [info]: frame B:103256 Avg QP:18.97  size:  7993
General
Unique ID                                : 180649886547515521257356906245047476849 (0x87E7E7107AA8D7B9A2915EE5FC306271)
Complete name                            : D:\download\K4H1KyL1.2015D.WEB-DLRip-AVC by schultz R.G.Resident.mkv
Format                                   : Matroska
Format version                           : Version 2
File size                                : 2.17 GiB
Duration                                 : 1h 38mn
Overall bit rate                         : 3 141 Kbps
Encoded date                             : UTC 2015-12-05 14:28:58
Writing application                      : mkvmerge v6.1.0 ('Old Devil') built on Mar  4 2013 09:10:42
Writing library                          : libebml v1.3.0 + libmatroska v1.4.0

Video
ID                                       : 1
Format                                   : AVC
Format/Info                              : Advanced Video Codec
Format profile                           : High@L4.1
Format settings, CABAC                   : Yes
Format settings, ReFrames                : 4 frames
Codec ID                                 : V_MPEG4/ISO/AVC
Duration                                 : 1h 38mn
Bit rate                                 : 2 756 Kbps
Width                                    : 1 152 pixels
Height                                   : 480 pixels
Display aspect ratio                     : 2.40:1
Frame rate                               : 23.976 fps
Color space                              : YUV
Chroma subsampling                       : 4:2:0
Bit depth                                : 8 bits
Scan type                                : Progressive
Bits/(Pixel*Frame)                       : 0.208
Stream size                              : 1.86 GiB (86%)
Writing library                          : x264 core 130 r2273 b3065e6
Encoding settings                        : cabac=1 / ref=4 / deblock=1:-2:-2 / analyse=0x3:0x113 / me=umh / subme=9 / psy=1 / psy_rd=1.00:0.00 / mixed_ref=1 / me_range=32 / chroma_me=1 / trellis=2 / 8x8dct=1 / cqm=0 / deadzone=21,11 / fast_pskip=0 / chroma_qp_offset=-2 / threads=12 / lookahead_threads=2 / sliced_threads=0 / nr=0 / decimate=0 / interlaced=0 / bluray_compat=0 / constrained_intra=0 / bframes=8 / b_pyramid=2 / b_adapt=2 / b_bias=0 / direct=3 / weightb=1 / open_gop=0 / weightp=2 / keyint=250 / keyint_min=23 / scenecut=40 / intra_refresh=0 / rc_lookahead=60 / rc=2pass / mbtree=0 / bitrate=2756 / ratetol=1.0 / qcomp=0.60 / qpmin=0 / qpmax=69 / qpstep=4 / cplxblur=20.0 / qblur=0.5 / vbv_maxrate=14000 / vbv_bufsize=14000 / nal_hrd=none / ip_ratio=1.40 / pb_ratio=1.30 / aq=1:0.80
Default                                  : Yes
Forced                                   : No

Audio
ID                                       : 2
Format                                   : AC-3
Format/Info                              : Audio Coding 3
Mode extension                           : CM (complete main)
Codec ID                                 : A_AC3
Duration                                 : 1h 38mn
Bit rate mode                            : Constant
Bit rate                                 : 384 Kbps
Channel(s)                               : 6 channels
Channel positions                        : Front: L C R, Side: L R, LFE
Sampling rate                            : 48.0 KHz
Bit depth                                : 16 bits
Compression mode                         : Lossy
Stream size                              : 272 MiB (12%)
Default                                  : Yes
Forced                                   : No


скриншот   скриншот   скриншот   скриншот  
piratbit.pw



Скачать Каникулы через торрент http://pic1.kartinco.top/images/10/9l18w.jpg Скачать фильм Каникулы через торрент бесплантно в хорошем качестве Описание: Расти Гризвольд - молодой отец и примерный семьянин, который очень хочет сплотить семью и воссоздать каникулы из своего детства. ... 9.7 10 12
Info! Золотая раздача, скачанное не засчитывается.
Торрент: Зарегистрирован [2015-12-05 15:02] · скачан: 483 раз
Статус: √ проверено
Размер: 2.17 GB
Как cкачать? Как скачать Каникулы через торрент | qTorrent

28-11-2019 20:33  

Отключить всю рекламу на сайте

05-12-2015 16:36 Каникулы Скачать торрент  

ржакаpiratbit.pw



06-12-2015 08:14 Каникулы Скачать торрент  

И где раздача ? :cansored: :cansored: :cansored:piratbit.pw



06-12-2015 09:05 Каникулы Скачать торрент  

Дайте раздачу. А то половину скачал и всё.piratbit.pw



06-12-2015 17:45 Каникулы Скачать торрент  

Вы заколебали, раздовать будете? Второй день качаю...piratbit.pw



28-12-2015 17:42 Каникулы Скачать торрент  

Отличный фильм смотрите непожалеете 5 баллов из 5. piratbit.pw



02-01-2016 12:15 Каникулы Скачать торрент  

Очередная тупая америкосовская комедия, с блевотой и тупыми секс шуткамиpiratbit.pw



    Дорогой пользователь! Огромная просьба, поблагодарите релизера, оцените раздачу и оставьте свои комментарий, если Вы скачали Каникулы через торрент бесплатно! Внесите свою лепту в развитие PiratBit!
    Комментировать посты могут только пользователи прошедшие не сложную регистрацию
    Показать сообщения:    

    Каникулы через торрент
    Скачать бесплатно Каникулы
    Каникулы скачать торрент
    Каникулы смотреть онлайн
    Cкачать фильм Каникулы бесплатно
    Каникулы скачать торрент в хорошем качестве
    Каникулы смотреть онлайн бесплатно в хорошем качестве


    Вы не можете начинать темы
    Вы не можете отвечать на сообщения
    Вы не можете редактировать свои сообщения
    Вы не можете удалять свои сообщения
    Вы не можете голосовать в опросах
    Вы не можете прикреплять файлы к сообщениям
    Вы можете скачивать файлы