Ссылка на приватное зеркало всего за 1$. Внимание количество ограничено!!!

iTunes

1+1

iTunes

мы

MV0

1

WEB-DLRip

Джокер

Пифагор

Ведьмак / The Witcher сериал

iTunes

ПШазам

iTunes

Оно 2

iTunes

30
pack

Вам бонус

ВАЖНО

!!Акция!!

Alien_RageХит недели

RePack

Resident Evil 21

ИГРА 18+

pack

RePack

jed

!!Акция!!

Alien_Rage

RePack

fifa19

RePack

Assassins Creed: Odyssey

RePack

NEED FOR SPEED™ PAYBACK

4 сезон

9 сезон

Бесстыжие 9 сезон

Все сериалы

все сериалы на PB.wtf

RePack

FAR CRY 5
  

Агенты А.Н.К.Л. / The Man from U.N.C.L.E. (Гай Ричи) [2015, боевик, комедия, приключения, WEB-DLRip-AVC, Дубляж] iTunes R.G.Resident piratbit.pw

Агенты А.Н.К.Л. через торрент piratbit.pw

Размер: 2.17 GB | Добавлен: 4 года 2 мес. назад | Торрент скачан:639 раз
Скачать  

04-12-2015 10:50 Агенты А.Н.К.Л. Скачать торрент  

Агенты А.Н.К.Л. / The Man from U.N.C.L.E.
««Герои высшего класса»»

Год выпуска: 2015
Страна: США, Великобритания
Жанр: боевик, комедия, приключения
Продолжительность: 01:56:25
Перевод: Дубляж - [Лицензия / iTunes]
Режиссер: Гай Ричи
В ролях:

Генри Кавилл (Solo), Арми Хаммер (Illya), Алисия Викандер (Gaby), Элизабет Дебики (Victoria), Хью Грант (Waverly), Лука Кальвани (Alexander), Сильвестр Грот (Uncle Rudi), Джаред Харрис (Sanders), Кристиан Беркель (Udo), Миша Кузнецов (Oleg), Гай Уильямс (Captain Smith), Марианна Ди Мартино (Desk Clerk)
Описание:
Наполеон Соло - агент ЦРУ, на счету которого огромное количество успешно проведенных операций. Он считается одним из лучших секретных агентов во всем мире, и с ним может сравниться только один человек - самый молодой и перспективный агент КГБ, Илья Курякин. Их противостояние переросло в настоящую войну, в которой никто не собирается уступать. Однако обстоятельства складываются так, что непримиримые враги вынуждены стать напарниками. Это происходит после того как спецслужбы двух стран обнаруживают международную преступную организацию, которой удалось создать ядерную бомбу...
Мировая премьера: 2 августа 2015

MPAA: PG-13 - Детям до 13 лет просмотр не желателен
Качество: WEB-DLRip-AVC Rip by schultz R.G.Resident
Формат: MKV
Видео: AVC, 1152x480 (2.40:1), 2287 kbps, 23,976 fps, 0,173 bpp
Аудио: AC3 / 5.1 / 48 kHz / 384 kbps / 16 bit

Код:

x264 [info]: frame I:1785  Avg QP:14.82  size: 53131
x264 [info]: frame P:47351 Avg QP:16.28  size: 23972
x264 [info]: frame B:118359 Avg QP:17.93  size:  6427

General
Unique ID                                : 241654000567864281515702624851985111511 (0xB5CCDE1A363FAC8998167DB0DCBB19D7)
Complete name                            : D:\download\The Man from U.N.C.L.E.2015. by schultz R.G.Resident.mkv
Format                                   : Matroska
Format version                           : Version 2
File size                                : 2.17 GiB
Duration                                 : 1h 56mn
Overall bit rate                         : 2 672 Kbps
Encoded date                             : UTC 2015-12-04 10:09:55
Writing application                      : mkvmerge v6.1.0 ('Old Devil') built on Mar  4 2013 09:10:42
Writing library                          : libebml v1.3.0 + libmatroska v1.4.0

Video
ID                                       : 1
Format                                   : AVC
Format/Info                              : Advanced Video Codec
Format profile                           : High@L4.1
Format settings, CABAC                   : Yes
Format settings, ReFrames                : 4 frames
Codec ID                                 : V_MPEG4/ISO/AVC
Duration                                 : 1h 56mn
Bit rate                                 : 2 287 Kbps
Width                                    : 1 152 pixels
Height                                   : 480 pixels
Display aspect ratio                     : 2.40:1
Frame rate                               : 23.976 fps
Color space                              : YUV
Chroma subsampling                       : 4:2:0
Bit depth                                : 8 bits
Scan type                                : Progressive
Bits/(Pixel*Frame)                       : 0.173
Stream size                              : 1.82 GiB (84%)
Writing library                          : x264 core 130 r2273 b3065e6
Encoding settings                        : cabac=1 / ref=4 / deblock=1:-2:-2 / analyse=0x3:0x113 / me=umh / subme=9 / psy=1 / psy_rd=1.00:0.00 / mixed_ref=1 / me_range=32 / chroma_me=1 / trellis=2 / 8x8dct=1 / cqm=0 / deadzone=21,11 / fast_pskip=0 / chroma_qp_offset=-2 / threads=12 / lookahead_threads=2 / sliced_threads=0 / nr=0 / decimate=0 / interlaced=0 / bluray_compat=0 / constrained_intra=0 / bframes=8 / b_pyramid=2 / b_adapt=2 / b_bias=0 / direct=3 / weightb=1 / open_gop=0 / weightp=2 / keyint=250 / keyint_min=23 / scenecut=40 / intra_refresh=0 / rc_lookahead=60 / rc=2pass / mbtree=0 / bitrate=2287 / ratetol=1.0 / qcomp=0.60 / qpmin=0 / qpmax=69 / qpstep=4 / cplxblur=20.0 / qblur=0.5 / vbv_maxrate=14000 / vbv_bufsize=14000 / nal_hrd=none / ip_ratio=1.40 / pb_ratio=1.30 / aq=1:0.80
Default                                  : Yes
Forced                                   : No

Audio
ID                                       : 2
Format                                   : AC-3
Format/Info                              : Audio Coding 3
Mode extension                           : CM (complete main)
Codec ID                                 : A_AC3
Duration                                 : 1h 56mn
Bit rate mode                            : Constant
Bit rate                                 : 384 Kbps
Channel(s)                               : 6 channels
Channel positions                        : Front: L C R, Side: L R, LFE
Sampling rate                            : 48.0 KHz
Bit depth                                : 16 bits
Compression mode                         : Lossy
Stream size                              : 320 MiB (14%)
Default                                  : Yes
Forced                                   : No


скриншот  скриншот  скриншот  скриншот  
piratbit.pw



Скачать Агенты А.Н.К.Л. через торрент http://pic1.kartinco.top/images/10/zahyz.jpg Скачать фильм Агенты А.Н.К.Л. через торрент бесплантно в хорошем качестве Описание: Наполеон Соло - агент ЦРУ, на счету которого огромное количество успешно проведенных операций. Он считается одним из лучших ... 9.8 10 19
Info! Золотая раздача, скачанное не засчитывается.
Торрент: Зарегистрирован [2015-12-04 10:50] · скачан: 639 раз
Статус: √ проверено
Размер: 2.17 GB
Как cкачать? Как скачать Агенты А.Н.К.Л. через торрент | qTorrent

28-11-2019 20:33  

Отключить всю рекламу на сайте

06-12-2015 08:39 Агенты А.Н.К.Л. Скачать торрент  

Прикольный фильм посмотрел с удовольствием надеюсь г.Ричи снимет продолжение!piratbit.pw



    Дорогой пользователь! Огромная просьба, поблагодарите релизера, оцените раздачу и оставьте свои комментарий, если Вы скачали Агенты А.Н.К.Л. через торрент бесплатно! Внесите свою лепту в развитие PiratBit!
    Комментировать посты могут только пользователи прошедшие не сложную регистрацию
    Показать сообщения:    

    Агенты А.Н.К.Л. через торрент
    Скачать бесплатно Агенты А.Н.К.Л.
    Агенты А.Н.К.Л. скачать торрент
    Агенты А.Н.К.Л. смотреть онлайн
    Cкачать фильм Агенты А.Н.К.Л. бесплатно
    Агенты А.Н.К.Л. скачать торрент в хорошем качестве
    Агенты А.Н.К.Л. смотреть онлайн бесплатно в хорошем качестве


    Вы не можете начинать темы
    Вы не можете отвечать на сообщения
    Вы не можете редактировать свои сообщения
    Вы не можете удалять свои сообщения
    Вы не можете голосовать в опросах
    Вы не можете прикреплять файлы к сообщениям
    Вы можете скачивать файлы