Ссылка на приватное зеркало всего за 1$. Внимание количество ограничено!!!

iTunes

1+1

iTunes

мы

MV0

1

WEB-DLRip

Джокер

Пифагор

Ведьмак / The Witcher сериал

iTunes

ПШазам

iTunes

Оно 2

iTunes

30
pack

Вам бонус

ВАЖНО

!!Акция!!

Alien_RageХит недели

RePack

Resident Evil 21

ИГРА 18+

pack

RePack

jed

!!Акция!!

Alien_Rage

RePack

fifa19

RePack

Assassins Creed: Odyssey

RePack

NEED FOR SPEED™ PAYBACK

4 сезон

9 сезон

Бесстыжие 9 сезон

Все сериалы

все сериалы на PB.wtf

RePack

FAR CRY 5
  

Побудь в моей шкуре / Under the Skin (Джонатан Глейзер) [2013 г., фантастика, триллер, драма, HDRip, Профессиональный (многоголосый)] от R.G. Resident piratbit.pw

Побудь в моей шкуре через торрент piratbit.pw

Раздают: 1 [ 0 KB/s ]
Размер: 2.02 GB | Добавлен: 4 года 2 мес. назад | Торрент скачан:243 раза
Скачать  

04-12-2015 08:25 Побудь в моей шкуре Скачать торрент  

Побудь в моей шкуре / Under the SkinГод выпуска: 2013
Страна: Великобритания, США, Швейцария
Жанр: фантастика, триллер, драма
Продолжительность: 01:48:16
Перевод: Профессиональный (многоголосый) | R5
Субтитры: Нет

Режиссер: Джонатан Глейзер
Продюссер: Ник Уэкслер, Джеймс Уилсон, Рено Антониадес
Сценарий: Уолтер Кэмпбелл, Джонатан Глейзер, Мишель Фабер

Бюджет: $13 300 000
Премьера в мире: 29 августа 2013



В ролях: Скарлетт Йоханссон, Джереми МакУильямс, Линси Тейлор Маккэй, Даги МакКоннелл, Кевин МакАлинден, Д. Мид, Эндрю Горман, Джо Шула, Криштоф Гадек, Рой Армстронг

Описание: Каждый день по трассе Эдинбург-Глазго ездит неказистая машина с роскошным водителем. За рулем пышногрудая брюнетка с огромными зелеными глазами. Она подбирает автостопщиков, в основном здоровых и мощных мужчин, но вовсе не для флирта. Цели девушки куда опасней...

Качество: HDRip | BDRip 720p
Формат: AVI
Видео кодек: XviD
Аудио кодек: AC3
Видео: 704x384 (1.83:1), 23.976 fps, XviD build 73 ~2284 kbps avg, 0.35 bit/pixel
Аудио: 48 kHz, AC3 Dolby Digital, 3/2 (L,C,R,l,r) + LFE ch, ~384 kbps



Автор рипа: Dean24
| | R.G. Resident
Общее
Полное имя : D:\Мои документы\Фильмы\Сайт\Under.the.Skin.HDRip.avi
Формат : AVI
Формат/Информация : Audio Video Interleave
Профиль формата : OpenDML
Размер файла : 2,02 Гбайт
Продолжительность : 1 ч. 48 м.
Общий поток : 2676 Кбит/сек
Программа кодирования : VirtualDubMod 1.5.10.3 | www.virtualdub-fr.org || (build 2550/release)
Библиотека кодирования : VirtualDubMod build 2550/release

Видео
Идентификатор : 0
Формат : MPEG-4 Visual
Профиль формата : Advanced Simple@L5
Параметр BVOP формата : 3
Параметр QPel формата : Нет
Параметр GMC формата : Без точки перехода
Параметр матрицы формата : Default (H.263)
Идентификатор кодека : XVID
Идентификатор кодека/Подсказка : XviD
Продолжительность : 1 ч. 48 м.
Битрейт : 2280 Кбит/сек
Ширина : 704 пикселя
Высота : 384 пикселя
Соотношение сторон : 1,85:1
Частота кадров : 23,976 кадра/сек
Цветовое пространство : YUV
Субдискретизация насыщенности : 4:2:0
Битовая глубина : 8 бит
Тип развёртки : Прогрессивная
Метод сжатия : С потерями
Бит/(Пиксели*Кадры) : 0.352
Размер потока : 1,72 Гбайт (85%)
Библиотека кодирования : XviD 73

Аудио
Идентификатор : 1
Формат : AC-3
Формат/Информация : Audio Coding 3
Расширение режима : CM (complete main)
Параметр Endianness формата : Big
Идентификатор кодека : 2000
Продолжительность : 1 ч. 48 м.
Вид битрейта : Постоянный
Битрейт : 384 Кбит/сек
Каналы : 6 каналов
Расположение каналов : Front: L C R, Side: L R, LFE
Частота : 48,0 КГц
Битовая глубина : 16 бит
Метод сжатия : С потерями
Размер потока : 297 Мбайт (14%)
Выравнивание : Разделение по промежуткам
Продолжительность промежутка : 42 мс. (1,00 видеокадр)
Время предзагрузки промежутка : 500 мс.

piratbit.pw



Скачать Побудь в моей шкуре через торрент http://i67.fastpic.ru/big/2015/1204/af/749f8c16f6e94896a6aa2ab02fda27af.png Скачать фильм Побудь в моей шкуре через торрент бесплантно в хорошем качестве Описание: Каждый день по трассе Эдинбург-Глазго ездит неказистая машина с роскошным водителем. За рулем пышногрудая брюнетка с огромными ... 8.8 10 9
Info! Золотая раздача, скачанное не засчитывается.
Торрент: Зарегистрирован [2015-12-04 08:25] · скачан: 243 раз
Статус: √ проверено
Размер: 2.02 GB
Как cкачать? Как скачать Побудь в моей шкуре через торрент | qTorrent

28-11-2019 20:33  

Отключить всю рекламу на сайте

04-12-2015 09:52 Побудь в моей шкуре Скачать торрент  

Цитата:

Побудь в моей шкуре / Under the Skin (Джонатан Глейзер) [2013 г., фантастика, триллер, драма, HDRip, Профессиональный (многоголосый)] от R.G. Resident

Раздающему конечно спасибо, но фильм на оооочень большого ценителя, как по мне, так дрянь редкостная, крайне редко такое занудство приходится увидеть.piratbit.pw



04-12-2015 16:05 Побудь в моей шкуре Скачать торрент  

Гадость.piratbit.pw



    Дорогой пользователь! Огромная просьба, поблагодарите релизера, оцените раздачу и оставьте свои комментарий, если Вы скачали Побудь в моей шкуре через торрент бесплатно! Внесите свою лепту в развитие PiratBit!
    Комментировать посты могут только пользователи прошедшие не сложную регистрацию
    Показать сообщения:    

    Побудь в моей шкуре через торрент
    Скачать бесплатно Побудь в моей шкуре
    Побудь в моей шкуре скачать торрент
    Побудь в моей шкуре смотреть онлайн
    Cкачать фильм Побудь в моей шкуре бесплатно
    Побудь в моей шкуре скачать торрент в хорошем качестве
    Побудь в моей шкуре смотреть онлайн бесплатно в хорошем качестве


    Вы не можете начинать темы
    Вы не можете отвечать на сообщения
    Вы не можете редактировать свои сообщения
    Вы не можете удалять свои сообщения
    Вы не можете голосовать в опросах
    Вы не можете прикреплять файлы к сообщениям
    Вы можете скачивать файлы