Ссылка на приватное зеркало всего за 1$. Внимание количество ограничено!!!

iTunes

1+1

iTunes

мы

MV0

1

WEB-DLRip

Джокер

Пифагор

Ведьмак / The Witcher сериал

iTunes

ПШазам

iTunes

Оно 2

iTunes

30
pack

Вам бонус

ВАЖНО

!!Акция!!

Alien_RageХит недели

RePack

Resident Evil 21

ИГРА 18+

pack

RePack

jed

!!Акция!!

Alien_Rage

RePack

fifa19

RePack

Assassins Creed: Odyssey

RePack

NEED FOR SPEED™ PAYBACK

4 сезон

9 сезон

Бесстыжие 9 сезон

Все сериалы

все сериалы на PB.wtf

RePack

FAR CRY 5
  

Шестой день / The 6th Day (Роджер Споттисвуд) [2000, фантастика, боевик, триллер, BDRip-AVC, Дублированный (Blu-ray CEE) by schultz] от R.G.Resident piratbit.pw

Шестой день через торрент piratbit.pw

Качают: 1 [ 0 KB/s ]
Размер: 2.72 GB | Добавлен: 4 года 2 мес. назад | Торрент скачан:22 раза
Скачать  

02-12-2015 13:00 Шестой день Скачать торрент  

Шестой день / The 6th Day
««They picked the wrong man to clone»»
Год выпуска: 2000
Страна: США
Жанр: фантастика, боевик, триллер
Продолжительность: 02:03:37
Перевод: Дублированный (Blu-ray CEE)
Режиссер: Роджер Споттисвуд
В ролях:

Арнольд Шварценеггер (Adam Gibson), Майкл Рапапорт (Hank Morgan), Тони Голдуин (Michael Drucker), Майкл Рукер (Robert Marshall), Сара Уайнтер (Talia Elsworth), Венди Крюсон (Natalie Gibson), Родни Роулэнд (P. Wiley), Терри Крюс (Vincent), Кен Поуг (Speaker Day), Роберт Дювалл (Dr. Griffin Weir), Колин Каннингэм (Tripp), Ванда Кэннон (Katherine Weir)
Описание:
В начале третьего тысячелетия самым суровым законом стал «закон Шестого дня». Он запрещал клонирование людей и создание искусственных копий человека. Но огромная подпольная империя вопреки запрету выращивает человечество нового будущего, сотни управляемых теней.
Налаженная машина преступления не давала сбоев, пока в ее совершенный механизм не вмешалась случайность: пилот вертолета Адам Гибсон неожиданно приоткрыл непроницаемую завесу заговора. Теперь он - последний рубеж обороны, отделяющий цивилизацию от общества зомби.
Мировая премьера: 28 октября 2000

MPAA: PG-13 - Детям до 13 лет просмотр не желателен
Качество: BDRip-AVC Rip by schultz R.G.Resident
Формат: MKV
Видео: AVC, 1024x424 (2.40:1), 2512 kbps, 23,976 fps, 0,241 bpp
Аудио: русский / AC3 / 5.1 / 48 kHz / 640 kbps / 16 bit

Код:

x264 [info]: frame I:2312  Avg QP:16.00  size: 56491
x264 [info]: frame P:42322 Avg QP:17.18  size: 25001
x264 [info]: frame B:133198 Avg QP:18.94  size:  8423

General
Unique ID                                : 229098425503204046973478186928791381862 (0xAC5AC0753C128048B036E0EC06AC6766)
Complete name                            : D:\download\Шестой день.2000.BDRip-AVC by schultz R.G.Resident.mkv
Format                                   : Matroska
Format version                           : Version 4 / Version 2
File size                                : 2.72 GiB
Duration                                 : 2h 3mn
Overall bit rate                         : 3 153 Kbps
Encoded date                             : UTC 2015-12-02 11:26:56
Writing application                      : mkvmerge v6.7.0 ('Back to the Ground') 64bit built on Jan  8 2014 15:10:52
Writing library                          : libebml v1.3.0 + libmatroska v1.4.1

Video
ID                                       : 1
Format                                   : AVC
Format/Info                              : Advanced Video Codec
Format profile                           : High@L4.1
Format settings, CABAC                   : Yes
Format settings, ReFrames                : 4 frames
Codec ID                                 : V_MPEG4/ISO/AVC
Duration                                 : 2h 3mn
Bit rate                                 : 2 512 Kbps
Width                                    : 1 024 pixels
Height                                   : 424 pixels
Display aspect ratio                     : 2.40:1
Frame rate                               : 23.976 fps
Color space                              : YUV
Chroma subsampling                       : 4:2:0
Bit depth                                : 8 bits
Scan type                                : Progressive
Bits/(Pixel*Frame)                       : 0.241
Stream size                              : 2.12 GiB (78%)
Writing library                          : x264 core 130 r2273 b3065e6
Encoding settings                        : cabac=1 / ref=4 / deblock=1:-2:-2 / analyse=0x3:0x113 / me=umh / subme=9 / psy=1 / psy_rd=1.00:0.00 / mixed_ref=1 / me_range=32 / chroma_me=1 / trellis=2 / 8x8dct=1 / cqm=0 / deadzone=21,11 / fast_pskip=0 / chroma_qp_offset=-2 / threads=12 / lookahead_threads=2 / sliced_threads=0 / nr=0 / decimate=0 / interlaced=0 / bluray_compat=0 / constrained_intra=0 / bframes=8 / b_pyramid=2 / b_adapt=2 / b_bias=0 / direct=3 / weightb=1 / open_gop=0 / weightp=2 / keyint=250 / keyint_min=23 / scenecut=40 / intra_refresh=0 / rc_lookahead=60 / rc=2pass / mbtree=0 / bitrate=2512 / ratetol=1.0 / qcomp=0.60 / qpmin=0 / qpmax=69 / qpstep=4 / cplxblur=20.0 / qblur=0.5 / vbv_maxrate=14000 / vbv_bufsize=14000 / nal_hrd=none / ip_ratio=1.40 / pb_ratio=1.30 / aq=1:0.80
Language                                 : Russian
Default                                  : No
Forced                                   : No

Audio
ID                                       : 2
Format                                   : AC-3
Format/Info                              : Audio Coding 3
Mode extension                           : CM (complete main)
Codec ID                                 : A_AC3
Duration                                 : 2h 3mn
Bit rate mode                            : Constant
Bit rate                                 : 640 Kbps
Channel(s)                               : 6 channels
Channel positions                        : Front: L C R, Side: L R, LFE
Sampling rate                            : 48.0 KHz
Bit depth                                : 16 bits
Compression mode                         : Lossy
Stream size                              : 566 MiB (20%)
Title                                    : Дублированный (Blu-ray CEE)
Language                                 : Russian
Default                                  : Yes
Forced                                   : No


скриншот  скриншот  скриншот  скриншот  
piratbit.pw



Скачать Шестой день через торрент http://pic1.kartinco.top/images/10/ejpqs.jpg Скачать фильм Шестой день через торрент бесплантно в хорошем качестве Описание: В начале третьего тысячелетия самым суровым законом стал «закон Шестого дня». Он запрещал клонирование людей и создание ... 10 10 4
Info! Золотая раздача, скачанное не засчитывается.
Торрент: Зарегистрирован [2015-12-02 13:00] · скачан: 22 раз
Статус: √ проверено
Размер: 2.72 GB
Как cкачать? Как скачать Шестой день через торрент | qTorrent



Последний раз редактировалось: schultz (2015-12-05 20:04), всего редактировалось 1 раз

28-11-2019 20:33  

Отключить всю рекламу на сайте

02-12-2015 13:35 Шестой день Скачать торрент  

schultz, С почином piratbit.pw



02-12-2015 14:12 Шестой день Скачать торрент  

schultz мои поздравленияpiratbit.pw



02-12-2015 17:03 Шестой день Скачать торрент  

piratbit.pw



13-03-2018 17:51 Шестой день Скачать торрент  

скорости плизззззpiratbit.pw



    Дорогой пользователь! Огромная просьба, поблагодарите релизера, оцените раздачу и оставьте свои комментарий, если Вы скачали Шестой день через торрент бесплатно! Внесите свою лепту в развитие PiratBit!
    Комментировать посты могут только пользователи прошедшие не сложную регистрацию
    Показать сообщения:    

    Шестой день через торрент
    Скачать бесплатно Шестой день
    Шестой день скачать торрент
    Шестой день смотреть онлайн
    Cкачать фильм Шестой день бесплатно
    Шестой день скачать торрент в хорошем качестве
    Шестой день смотреть онлайн бесплатно в хорошем качестве


    Вы не можете начинать темы
    Вы не можете отвечать на сообщения
    Вы не можете редактировать свои сообщения
    Вы не можете удалять свои сообщения
    Вы не можете голосовать в опросах
    Вы не можете прикреплять файлы к сообщениям
    Вы можете скачивать файлы