Ссылка на приватное зеркало всего за 1$. Внимание количество ограничено!!!

iTunes

1+1

iTunes

мы

MV0

1

WEB-DLRip

Джокер

Пифагор

Ведьмак / The Witcher сериал

iTunes

ПШазам

iTunes

Оно 2

iTunes

30
pack

Вам бонус

ВАЖНО

!!Акция!!

Alien_RageХит недели

RePack

Resident Evil 21

ИГРА 18+

pack

RePack

jed

!!Акция!!

Alien_Rage

RePack

fifa19

RePack

Assassins Creed: Odyssey

RePack

NEED FOR SPEED™ PAYBACK

4 сезон

9 сезон

Бесстыжие 9 сезон

Все сериалы

все сериалы на PB.wtf

RePack

FAR CRY 5
  

Девятые врата / The Ninth Gate (Роман Полански) [1999, триллер, детектив, BDRip-AVC от R.G. Resident] Дубляж piratbit.pw

Девятые врата через торрент piratbit.pw

Размер: 3.36 GB | Добавлен: 4 года 2 мес. назад | Торрент скачан:170 раз
Скачать  

29-11-2015 08:38 Девятые врата Скачать торрент  

Девятые врата / The Ninth Gate«Как далеко ты готов зайти?»

  • Год выхода: 1999
  • Жанр: триллер, детектив

  • Страна: Испания, Франция, США
  • Продолжительность: 02:13:14
  • Перевод: Дубляж
  • Cубтитры: русские (Full), английские (Full)
  • Режиссер: Роман Полански
  • В ролях:

    Джонни Депп (Dean Corso), Фрэнк Ланджелла (Boris Balkan), Лена Олин (Liana Telfer), Эмманюэль Сенье (The Girl), Барбара Джеффорд (Baroness Kessler), Джек Тейлор (Victor Fargas), Хосе Лопес Родеро (Pablo & Pedro Ceniza / 1st & 2nd Workmen), Тони Амони (Liana's Bodyguard), Джеймс Руссо (Bernie), Уилли Холт (Andrew Telfer), Аллен Гарфилд (Witkin), Жак Дакмин (Old Man)


  • Дин Корсо, один из лучших специалистов по поиску, оценке и скупке раритетных изданий, принимает от владельца крупнейшей в мире библиотеки оккультных книг необычный, но крайне выгодный заказ: определить подлинность венца собрания, фолианта XVII века под названием «Девять врат в царство призраков», с помощью которого, по преданию, можно вызвать самого Люцифера. Ему предстоит полное опасностей и тайн путешествие по Европе.
    Но только тогда, когда на пути к разгадке тайны «Девятых врат» начинают попадаться трупы тех, с кем Дин Корсо встречался совсем недавно, ему открывается зловещая правда. Он понимает, что в этой дьявольской игре на кон поставлена не только жизнь его, но и душа...

  • Качество: BDRip-AVC
  • Формат: MKV
  • Видео кодек: AVC
  • Аудио кодек: AC3
  • Видео: AVC, 1040x440 (2.35:1), 2772 kbps, 23,976 fps, 0,253 bpp
  • Аудио №1: русский / AC3 / 5.1 / 48 kHz / 384 kbps / 16 bit |Дубляж|
  • Аудио №2: английский / AC3 / 5.1 / 48 kHz / 448 kbps / 16 bit
  • Навигация по главам: есть

    Код:

    General
    Unique ID                                : 247215972532607515980544806545342439477 (0xB9FC107E08DEBFDF957730BA2421A035)
    Complete name                            : H:\The.Ninth.Gate.1999.BDRip.AVC.R.G.Resident.mkv
    Format                                   : Matroska
    Format version                           : Version 4 / Version 2
    File size                                : 3.36 GiB
    Duration                                 : 2h 13mn
    Overall bit rate                         : 3 606 Kbps
    Movie name                               : The Ninth Gate (1999) BDRip-AVC by R.G. Resident
    Encoded date                             : UTC 2015-11-28 22:08:23
    Writing application                      : mkvmerge v8.5.2 ('Crosses') 64bit
    Writing library                          : libebml v1.3.3 + libmatroska v1.4.4
    DURATION                                 : 02:02:17.913000000
    NUMBER_OF_FRAMES                         : 1022
    NUMBER_OF_BYTES                          : 36240
    _STATISTICS_WRITING_APP                  : mkvmerge v8.5.2 ('Crosses') 64bit
    _STATISTICS_WRITING_DATE_UTC             : 2015-11-28 22:08:23
    _STATISTICS_TAGS                         : BPS DURATION NUMBER_OF_FRAMES NUMBER_OF_BYTES

    Video
    ID                                       : 1
    Format                                   : AVC
    Format/Info                              : Advanced Video Codec
    Format profile                           : High@L4.1
    Format settings, CABAC                   : Yes
    Format settings, ReFrames                : 12 frames
    Codec ID                                 : V_MPEG4/ISO/AVC
    Duration                                 : 2h 13mn
    Bit rate                                 : 2 772 Kbps
    Width                                    : 1 040 pixels
    Height                                   : 440 pixels
    Display aspect ratio                     : 2.35:1
    Frame rate                               : 23.976 fps
    Color space                              : YUV
    Chroma subsampling                       : 4:2:0
    Bit depth                                : 8 bits
    Scan type                                : Progressive
    Bits/(Pixel*Frame)                       : 0.253
    Stream size                              : 2.52 GiB (75%)
    Title                                    : -Lexx-
    Writing library                          : x264 core 146 r2538 121396c
    Encoding settings                        : cabac=1 / ref=12 / deblock=1:-3:-3 / analyse=0x3:0x113 / me=umh / subme=11 / psy=1 / psy_rd=1.00:0.10 / mixed_ref=1 / me_range=32 / chroma_me=1 / trellis=2 / 8x8dct=1 / cqm=0 / deadzone=21,11 / fast_pskip=0 / chroma_qp_offset=-3 / threads=6 / lookahead_threads=2 / sliced_threads=0 / nr=0 / decimate=1 / interlaced=0 / bluray_compat=0 / constrained_intra=0 / bframes=12 / b_pyramid=2 / b_adapt=2 / b_bias=0 / direct=3 / weightb=1 / open_gop=0 / weightp=2 / keyint=240 / keyint_min=23 / scenecut=40 / intra_refresh=0 / rc=2pass / mbtree=0 / bitrate=2772 / ratetol=1.0 / qcomp=0.60 / qpmin=0 / qpmax=69 / qpstep=4 / cplxblur=20.0 / qblur=0.5 / ip_ratio=1.40 / pb_ratio=1.30 / aq=1:1.00
    Language                                 : English
    Default                                  : Yes
    Forced                                   : No
    DURATION                                 : 02:13:14.779000000
    NUMBER_OF_FRAMES                         : 191683
    NUMBER_OF_BYTES                          : 2770418371
    _STATISTICS_WRITING_APP                  : mkvmerge v8.5.2 ('Crosses') 64bit
    _STATISTICS_WRITING_DATE_UTC             : 2015-11-28 22:08:23
    _STATISTICS_TAGS                         : BPS DURATION NUMBER_OF_FRAMES NUMBER_OF_BYTES

    Audio #1
    ID                                       : 2
    Format                                   : AC-3
    Format/Info                              : Audio Coding 3
    Mode extension                           : CM (complete main)
    Codec ID                                 : A_AC3
    Duration                                 : 2h 13mn
    Bit rate mode                            : Constant
    Bit rate                                 : 384 Kbps
    Channel(s)                               : 6 channels
    Channel positions                        : Front: L C R, Side: L R, LFE
    Sampling rate                            : 48.0 KHz
    Bit depth                                : 16 bits
    Compression mode                         : Lossy
    Stream size                              : 366 MiB (11%)
    Title                                    : Дубляж
    Language                                 : Russian
    Default                                  : Yes
    Forced                                   : No

    Audio #2
    ID                                       : 3
    Format                                   : AC-3
    Format/Info                              : Audio Coding 3
    Mode extension                           : CM (complete main)
    Codec ID                                 : A_AC3
    Duration                                 : 2h 13mn
    Bit rate mode                            : Constant
    Bit rate                                 : 448 Kbps
    Channel(s)                               : 6 channels
    Channel positions                        : Front: L C R, Side: L R, LFE
    Sampling rate                            : 48.0 KHz
    Bit depth                                : 16 bits
    Compression mode                         : Lossy
    Stream size                              : 427 MiB (12%)
    Title                                    : Оригинал
    Language                                 : English
    Default                                  : No
    Forced                                   : No

    Text #1
    ID                                       : 4
    Format                                   : UTF-8
    Codec ID                                 : S_TEXT/UTF8
    Codec ID/Info                            : UTF-8 Plain Text
    Title                                    : Full
    Language                                 : Russian
    Default                                  : No
    Forced                                   : No

    Text #2
    ID                                       : 5
    Format                                   : UTF-8
    Codec ID                                 : S_TEXT/UTF8
    Codec ID/Info                            : UTF-8 Plain Text
    Title                                    : Full
    Language                                 : English
    Default                                  : No
    Forced                                   : No

    Menu
    00:00:00.000                             : :Chapter 01
    00:00:00.792                             : :Chapter 02
    00:00:30.572                             : :Chapter 03
    00:09:45.001                             : :Chapter 04
    00:18:08.670                             : :Chapter 05
    00:22:41.735                             : :Chapter 06
    00:32:16.225                             : :Chapter 07
    00:37:34.168                             : :Chapter 08
    00:44:55.859                             : :Chapter 09
    00:53:45.555                             : :Chapter 10
    01:02:16.232                             : :Chapter 11
    01:10:30.017                             : :Chapter 12
    01:21:04.276                             : :Chapter 13
    01:28:07.240                             : :Chapter 14
    01:34:33.334                             : :Chapter 15
    01:42:53.667                             : :Chapter 16
    01:51:42.696                             : :Chapter 17
    02:05:30.814                             : :Chapter 18
    02:13:14.569                             : :Chapter 19

    Скриншоты:




    © Оформление by -Lexx- piratbit.pw



  • Скачать Девятые врата через торрент http://i.imgur.com/vYaI5A2.png Скачать фильм Девятые врата через торрент бесплантно в хорошем качестве qw.png Дин Корсо, один из лучших специалистов по поиску, оценке и скупке раритетных изданий, принимает от владельца крупнейшей в мире ... 9.8 10 8
    Info! Золотая раздача, скачанное не засчитывается.
    Торрент: Зарегистрирован [2015-11-29 08:38] · скачан: 170 раз
    Статус: √ проверено
    Размер: 3.36 GB
    Как cкачать? Как скачать Девятые врата через торрент | qTorrent

    28-11-2019 20:33  

    Отключить всю рекламу на сайте

    29-11-2015 09:02 Девятые врата Скачать торрент  

    5+++!piratbit.pw



      Дорогой пользователь! Огромная просьба, поблагодарите релизера, оцените раздачу и оставьте свои комментарий, если Вы скачали Девятые врата через торрент бесплатно! Внесите свою лепту в развитие PiratBit!
      Комментировать посты могут только пользователи прошедшие не сложную регистрацию
      Показать сообщения:    

      Девятые врата через торрент
      Скачать бесплатно Девятые врата
      Девятые врата скачать торрент
      Девятые врата смотреть онлайн
      Cкачать фильм Девятые врата бесплатно
      Девятые врата скачать торрент в хорошем качестве
      Девятые врата смотреть онлайн бесплатно в хорошем качестве


      Вы не можете начинать темы
      Вы не можете отвечать на сообщения
      Вы не можете редактировать свои сообщения
      Вы не можете удалять свои сообщения
      Вы не можете голосовать в опросах
      Вы не можете прикреплять файлы к сообщениям
      Вы можете скачивать файлы