Marvel's Avengers Deluxe Edition (супер цена) 159р. Внимание количество ограничено!!!

2 сезон

iTunes

iTunes

1

iTunes

iTunes

iTunes

WEBRip

iTunes

30
pack

Новость дня

ВАЖНО

!!Акция!!

Alien_RageХит недели

RePack

Horizon Zero Dawn

ИГРА 18+

pack

RePack

jed

!!Акция!!

Alien_Rage

RePack

fifa19

RePack

Assassins Creed: Odyssey

RePack

NEED FOR SPEED™ PAYBACK

4 сезон

9 сезон

Бесстыжие 9 сезон

Все сериалы

все сериалы на PB.wtf

RePack

FAR CRY 5
  

Без границ (Карен Оганесян, Резо Гигинеишвили, Роман Прыгунов) [2015, Комедия, мелодрама, WEB-DL 1080p] iTunes piratbit.pw

Без границ через торрент piratbit.pw

Размер: 3.23 GB | Добавлен: 4 года 9 мес. назад | Торрент скачан:2709 раз
Скачать  

26-11-2015 04:15 Без границ Скачать торрент  

Оригинальное название: Без границ
Год выпуска: 2015
Выпущено: Россия, Фонд кино, Кинокомпания "Небо"
Продолжительность: 01:36:02
Язык: Русский
Жанр: Комедия, мелодрама

Режиссер: Карен Оганесян, Резо Гигинеишвили, Роман Прыгунов

В ролях: Инна Чурикова, Олег Басилашвили, Александр Адабашьян, Анна Чиповская, Иван Янковский, Александр Паль, Милош Бикович, Мария Шалаева, Равшана Куркова, Наталия Вдовина

Описание: События картины начинаются в московском аэропорту, откуда главные герои отправляются в захватывающие путешествия к живописным горным долинам Армении, утопающим в зелени улочкам Тбилиси и праздничным огням новогодней Москвы навстречу любви — яркой и страстной, наивной и нелепой, трогательной и грустной, счастливой и безрассудной, которая не знает границ и условностей, возраста и национальностей.



Качество: WEB-DL 1080p
Формат: MKV
Видео: AVC, 1920x804 (2.35:1), 24.000 fps, 4 340 Kbps (0.117 bit/pixel)
Аудио: AC-3, 48.0 KHz, 6 ch, 384 Kbps, CBR (Russian)

Семпл
Формат : Matroska
Версия формата : Version 4 / Version 2
Размер файла : 3,23 Гбайт
Продолжительность : 1 ч. 36 м.
Общий поток : 4820 Кбит/сек
Дата кодирования : UTC 2015-11-25 19:30:01
Программа кодирования : mkvmerge v8.3.0 ('Over the Horizon') 64bit
Библиотека кодирования : libebml v1.3.1 + libmatroska v1.4.2

Видео
Идентификатор : 1
Формат : AVC
Формат/Информация : Advanced Video Codec
Профиль формата : High@L4
Параметр CABAC формата : Да
Параметр ReFrames формата : 5 кадров
Идентификатор кодека : V_MPEG4/ISO/AVC
Продолжительность : 1 ч. 36 м.
Битрейт : 4340 Кбит/сек
Ширина : 1920 пикселей
Высота : 804 пикселя
Соотношение сторон : 2,40:1
Режим частоты кадров : Постоянный
Частота кадров : 24,000 кадра/сек
Цветовое пространство : YUV
Субдискретизация насыщенности : 4:2:0
Битовая глубина : 8 бит
Тип развёртки : Прогрессивная
Бит/(Пиксели*Кадры) : 0.117
Размер потока : 2,91 Гбайт (90%)
Язык : English
Default : Да
Forced : Нет
Цветовой диапазон : Limited
Основные цвета : BT.709
Характеристики трансфера : BT.709
Коэффициенты матрицы : BT.709

Аудио
Идентификатор : 2
Формат : AC-3
Формат/Информация : Audio Coding 3
Расширение режима : CM (complete main)
Параметр Endianness формата : Big
Идентификатор кодека : A_AC3
Продолжительность : 1 ч. 36 м.
Вид битрейта : Постоянный
Битрейт : 384 Кбит/сек
Каналы : 6 каналов
Расположение каналов : Front: L C R, Side: L R, LFE
Частота : 48,0 КГц
Метод сжатия : С потерями
Размер потока : 264 Мбайт (8%)
Язык : Russian
Default : Да
Forced : Нет

Меню
00:00:00.000 : en:Глава 1
00:05:59.000 : en:Глава 2
00:12:41.000 : en:Глава 3
00:18:48.000 : en:Глава 4
00:23:53.000 : en:Глава 5
00:29:17.000 : en:Глава 6
00:35:01.000 : en:Глава 7
00:41:06.000 : en:Глава 8
00:46:10.000 : en:Глава 9
00:51:18.000 : en:Глава 10
00:57:24.000 : en:Глава 11
01:02:47.000 : en:Глава 12
01:08:02.000 : en:Глава 13
01:14:07.000 : en:Глава 14
01:19:23.000 : en:Глава 15
01:24:27.000 : en:Глава 16
01:30:25.000 : en:Глава 17
скриншот   скриншот   скриншот   скриншот  
piratbit.pw



Скачать Без границ через торрент http://s017.radikal.ru/i435/1511/b0/11138d890657.jpg Скачать фильм Без границ через торрент бесплантно в хорошем качестве Описание: События картины начинаются в московском аэропорту, откуда главные герои отправляются в захватывающие путешествия к живописным ... 9.3 10 54
Info! Золотая раздача, скачанное не засчитывается.
Торрент: Зарегистрирован [2015-11-26 04:15] · скачан: 2 709 раз
Статус: √ проверено
Размер: 3.23 GB
Как cкачать? Как скачать Без границ через торрент | qTorrent

% Раздел Тема Автор DL S | L
Наши новые фильмы 2015 [ 741 MB ] Без границ [2015 WEB-DLRip-AVC] bober100 Скачать
2 | 0
Наши фильмы (HD, WEB-DL 720p, 1080p) [ 2.93 GB ] Без границ кэп Скачать
1 | 0

28-11-2019 20:33  

Отключить всю рекламу на сайте

01-12-2015 19:39 Без границ Скачать торрент  

спасибоpiratbit.pw



06-12-2015 08:53 Без границ Скачать торрент  

Заценим! Говорят, есть забавные сценыpiratbit.pw



06-12-2015 11:06 Без границ Скачать торрент  

Спасибо, посмотрю)piratbit.pw



08-12-2015 06:11 Без границ Скачать торрент  

Благодарю,хороший фильм со смешными фрагментами.остался довольным.piratbit.pw



11-12-2015 09:13 Без границ Скачать торрент  

Спасибо!С женой вечером посмотрим)piratbit.pw



11-12-2015 11:23 Без границ Скачать торрент  

Начинал смотреть -вроде ничего,нет времени посмотреть до конца piratbit.pw



12-12-2015 18:17 Без границ Скачать торрент  

Досмотри пожалуйста. Спасибо режиссёрам и раздающему. Все посмотрите фильм. Может читать начнёте.piratbit.pw



    Дорогой пользователь! Огромная просьба, поблагодарите релизера, оцените раздачу и оставьте свои комментарий, если Вы скачали Без границ через торрент бесплатно! Внесите свою лепту в развитие PiratBit!
    Комментировать посты могут только пользователи прошедшие не сложную регистрацию
    Показать сообщения:    

    Без границ через торрент
    Скачать бесплатно Без границ
    Без границ скачать торрент
    Без границ смотреть онлайн
    Cкачать фильм Без границ бесплатно
    Без границ скачать торрент в хорошем качестве
    Без границ смотреть онлайн бесплатно в хорошем качестве


    Вы не можете начинать темы
    Вы не можете отвечать на сообщения
    Вы не можете редактировать свои сообщения
    Вы не можете удалять свои сообщения
    Вы не можете голосовать в опросах
    Вы не можете прикреплять файлы к сообщениям
    Вы можете скачивать файлы