Ссылка на приватное зеркало нашего сайта всего за 1$. Внимание количество ограничено!!!

2 сезон

iTunes

iTunes

1

iTunes

iTunes

iTunes

WEBRip

iTunes

30
pack

Новость дня

ВАЖНО

!!Акция!!

Alien_RageХит недели

RePack

Horizon Zero Dawn

ИГРА 18+

pack

RePack

jed

!!Акция!!

Alien_Rage

RePack

fifa19

RePack

Assassins Creed: Odyssey

RePack

NEED FOR SPEED™ PAYBACK

4 сезон

9 сезон

Бесстыжие 9 сезон

Все сериалы

все сериалы на PB.wtf

RePack

FAR CRY 5
  

Без границ (Карен Оганесян, Резо Гигинеишвили, Роман Прыгунов) (2015, комедия, мелодрама, WEB-DL 720p) iTunes piratbit.pw

Без границ через торрент piratbit.pw

Размер: 2.93 GB | Добавлен: 4 года 9 мес. назад | Торрент скачан:1041 раз
Скачать  

26-11-2015 04:06 Без границ Скачать торрент  

Информация о фильме
Название: Без границ
Год выхода: 2015
Выпущено: Россия
Продолжительность: 01:36:02
Озвучивание: Оригинальное [iTunes]
Жанр: комедия, мелодрама

Режиссер: Карен Оганесян, Резо Гигинеишвили, Роман Прыгунов

В ролях: Инна Чурикова, Олег Басилашвили, Александр Адабашьян, Анна Чиповская, Иван Янковский, Александр Паль, Милош Бикович, Мария Шалаева, Равшана Куркова, Наталия Вдовина

Описание: События картины начинаются в московском аэропорту, откуда главные герои отправляются в захватывающие путешествия к живописным горным долинам Армении, утопающим в зелени улочкам Тбилиси и праздничным огням новогодней Москвы навстречу любви — яркой и страстной, наивной и нелепой, трогательной и грустной, счастливой и безрассудной, которая не знает границ и условностей, возраста и национальностей.



Файл

Качество: WEB-DL 720p
Формат: MKV
Видео: AVC, 1280x536 (2.35:1), 24.000 fps, 3 900 Kbps (0.237 bit/pixel)
Аудио: AC-3, 48.0 KHz, 6 ch, 384 Kbps, CBR (Russian)
Формат : Matroska
Версия формата : Version 4 / Version 2
Размер файла : 2,93 Гбайт
Продолжительность : 1 ч. 36 м.
Общий поток : 4371 Кбит/сек
Дата кодирования : UTC 2015-11-25 19:13:37
Программа кодирования : mkvmerge v8.3.0 ('Over the Horizon') 64bit
Библиотека кодирования : libebml v1.3.1 + libmatroska v1.4.2

Видео
Идентификатор : 1
Формат : AVC
Формат/Информация : Advanced Video Codec
Профиль формата : Main@L3.1
Параметр CABAC формата : Нет
Параметр ReFrames формата : 2 кадра
Идентификатор кодека : V_MPEG4/ISO/AVC
Продолжительность : 1 ч. 36 м.
Битрейт : 3900 Кбит/сек
Ширина : 1280 пикселей
Высота : 536 пикселей
Соотношение сторон : 2,40:1
Режим частоты кадров : Постоянный
Частота кадров : 24,000 кадра/сек
Цветовое пространство : YUV
Субдискретизация насыщенности : 4:2:0
Битовая глубина : 8 бит
Тип развёртки : Прогрессивная
Бит/(Пиксели*Кадры) : 0.237
Размер потока : 2,62 Гбайт (89%)
Язык : English
Default : Да
Forced : Нет
Цветовой диапазон : Limited
Основные цвета : BT.709
Характеристики трансфера : BT.709
Коэффициенты матрицы : BT.709

Аудио
Идентификатор : 2
Формат : AC-3
Формат/Информация : Audio Coding 3
Расширение режима : CM (complete main)
Параметр Endianness формата : Big
Идентификатор кодека : A_AC3
Продолжительность : 1 ч. 36 м.
Вид битрейта : Постоянный
Битрейт : 384 Кбит/сек
Каналы : 6 каналов
Расположение каналов : Front: L C R, Side: L R, LFE
Частота : 48,0 КГц
Метод сжатия : С потерями
Размер потока : 264 Мбайт (9%)
Язык : Russian
Default : Да
Forced : Нет

Меню
00:00:00.000 : en:Глава 1
00:05:59.000 : en:Глава 2
00:12:41.000 : en:Глава 3
00:18:48.000 : en:Глава 4
00:23:53.000 : en:Глава 5
00:29:17.000 : en:Глава 6
00:35:01.000 : en:Глава 7
00:41:06.000 : en:Глава 8
00:46:10.000 : en:Глава 9
00:51:18.000 : en:Глава 10
00:57:24.000 : en:Глава 11
01:02:47.000 : en:Глава 12
01:08:02.000 : en:Глава 13
01:14:07.000 : en:Глава 14
01:19:23.000 : en:Глава 15
01:24:27.000 : en:Глава 16
01:30:25.000 : en:Глава 17
скриншот   скриншот   скриншот  
piratbit.pw



Скачать Без границ через торрент http://i65.fastpic.ru/big/2015/1125/e7/53ee1bd90a43aba2be6f6d2371ee7de7.jpg Скачать фильм Без границ через торрент бесплантно в хорошем качестве Описание: События картины начинаются в московском аэропорту, откуда главные герои отправляются в захватывающие путешествия к живописным ... 8.9 10 21
Info! Золотая раздача, скачанное не засчитывается.
Торрент: Зарегистрирован [2015-11-26 04:06] · скачан: 1 041 раз
Статус: √ проверено
Размер: 2.93 GB
Как cкачать? Как скачать Без границ через торрент | qTorrent

% Раздел Тема Автор DL S | L
Наши новые фильмы 2015 [ 741 MB ] Без границ [2015 WEB-DLRip-AVC] bober100 Скачать
2 | 0
Наши фильмы (HD, WEB-DL 720p, 1080p) [ 3.23 GB ] Без границ [2015 WEB-DL 1080p] кэп Скачать
1 | 0

28-11-2019 20:33  

Отключить всю рекламу на сайте

06-12-2015 15:15 Без границ Скачать торрент  

Судя по трейлику, надо посмотреть. С футболистом - он круто :jest3: :jest3: :jest3:piratbit.pw



08-12-2015 18:51 Без границ Скачать торрент  

Посмотрев разочерован не остался.приятного всем просмотра...piratbit.pw



11-12-2015 09:47 Без границ Скачать торрент  

просто ответьте, совсем бабский фильм?
смотреть нынче вообще нечего...а 2016 жуть как манит..но чет невтерпежpiratbit.pw



12-12-2015 18:13 Без границ Скачать торрент  

Посмотрите пожалуйста. Хороший фильмpiratbit.pw



12-12-2015 18:21 Без границ Скачать торрент  

Точно не "бабский", правда там ни кого не убили, не ограбили и не расстреляли. Фильм о настоящих мужчинах, о таких, какиме они должны быть.
Это помнят, к сожалению, только кавказцы.piratbit.pw



16-12-2015 17:25 Без границ Скачать торрент  

хотел глянуть... но я так понял он для настоящих кавказцев... вот ето ска формулировка... один отзыв убил релиз...piratbit.pw



    Дорогой пользователь! Огромная просьба, поблагодарите релизера, оцените раздачу и оставьте свои комментарий, если Вы скачали Без границ через торрент бесплатно! Внесите свою лепту в развитие PiratBit!
    Комментировать посты могут только пользователи прошедшие не сложную регистрацию
    Показать сообщения:    

    Без границ через торрент
    Скачать бесплатно Без границ
    Без границ скачать торрент
    Без границ смотреть онлайн
    Cкачать фильм Без границ бесплатно
    Без границ скачать торрент в хорошем качестве
    Без границ смотреть онлайн бесплатно в хорошем качестве


    Вы не можете начинать темы
    Вы не можете отвечать на сообщения
    Вы не можете редактировать свои сообщения
    Вы не можете удалять свои сообщения
    Вы не можете голосовать в опросах
    Вы не можете прикреплять файлы к сообщениям
    Вы можете скачивать файлы