MEGA SALE -50% FORZA HORIZON 4 ULTIMATE+ВСЕ DLC+ОНЛАЙН всего за 599р. 299 руб. (супер цена). Внимание количество ограничено!!!

iTunes

1+1

iTunes

мы

iTunes

1

iTunes

Чернобыль

iTunes

Ральф против интернета

Лицензия

ПШазам

Лицензия

Игра престолов

Лицензия

30
pack

ВАЖНО

!!Акция!!

Alien_RageХит недели

RePack

Resident Evil 21

ИГРА 18+

pack

RePack

Metro:Exodus

!!Акция!!

Alien_Rage

RePack

fifa19

RePack

Assassins Creed: Odyssey

RePack

NEED FOR SPEED™ PAYBACK

3 сезон

9 сезон

Бесстыжие 9 сезон

Все сериалы

все сериалы на PB.wtf

RePack

FAR CRY 5
Ребята, катастрофически не хватает 7730р. для оплаты серверов за ИЮЛЬ (всвязи с блокировками трафик упал в 3 раза), 1-2р., выручайте.
  

Фантоцци 2000 – Клонирование / Fantozzi 2000 - La clonazione (Доменико Саверни) [1999, комедия, DVDRip, Профессиональный (многоголосый)] piratbit.pw

Фантоцци 2000 – Клонирование через торрент piratbit.pw

Размер: 1.23 GB | Добавлен: 3 года 8 мес. назад | Торрент скачан:105 раз
Скачать  

25-11-2015 18:59 Фантоцци 2000 – Клонирование Скачать торрент  

Фантоцци 2000 – Клонирование / Fantozzi 2000 - La clonazione

Год выпуска: 1999
Страна: Италия
Жанр: комедия
Продолжительность: 01:33:48
Перевод: Профессиональный (многоголосый)
Режиссер: Доменико Саверни
В ролях:

Паоло Вилладжо (Rag. Ugo Fantozzi), Милена Вукотич (Pina Fantozzi), Анна Маццамауро (Signorina Silvani), Паоло Паолони (Mega Presidente, Duca Conte G.M.Balabam), Доди Конти (Ughina), Стефано Машьярелли (Impresario dei Centocelle Nightmare), Мирта Пепе (Commissario), Ирма Капече Минутоло (Contessa Serbelloni Mazzanti Viendalmare), Альдо Ралли (Scienziato), Эвелина Гори (Contessa Madre Serbelloni Mazzanti Viendalmare), Centocelle Nightmare (играет самого себя), Ленка Ланчи
Описание:
Руководство Мега-Фирмы обеспокоено тем, что сотрудники совершенно выбились из-под контроля. Вдруг они вспоминают про самого услужливого и исполнительно работника - бухгалтера Уго Фантоцци. Они решают пригласить его снова на работу, но вот беда - он умер несколько лет назад. Но руководство компании это не останавливает. С помощью новейших технологий, используя волосы покойного бухгалтера, ученые создают клона, ничем не отличающегося от покойника. Фантоцци узнает свою жену, своего директора и со следующего же дня ревностно принимается исполнять свои служебные обязанности.
Но судьба готовит ему ряд за другим несколько сюрпризов - отдых в закрытом приюте для детей миллионеров, длительная эпопея с лотерейным билетом, чуть было не стоившая бухгалтеру семейного счастья, проблемы с внезапно приехавшей погостить к бабушке с дедушкой дорогой, но довольно таки взрослой внучкой, неожиданное приглашение на новогодний банкет к графине и даже встреча с инопланетянином.
Мировая премьера: 23 декабря 1999

Качество: DVDRip
Формат: AVI
Видео: DivX 5, 704x448 (1.571), 1681 kbps, 25 fps, 0,213 bpp
Аудио: AC3 / 2.0 / 48 kHz / 192 kbps / 16 bit

Код:

General
Complete name                            : D:\download\Fantozzi.2000.Klonirovanie.1999.DivX.DVDRip.avi
Format                                   : AVI
Format/Info                              : Audio Video Interleave
File size                                : 1.23 GiB
Duration                                 : 1h 33mn
Overall bit rate                         : 1 883 Kbps
Writing application                      : VirtualDubModRus 1.5.10.2 (build 2542/release)
Writing library                          : VirtualDubMod build 2542/release

Video
ID                                       : 0
Format                                   : MPEG-4 Visual
Format settings, BVOP                    : 1
Format settings, QPel                    : No
Format settings, GMC                     : No warppoints
Format settings, Matrix                  : Default (H.263)
Muxing mode                              : Packed bitstream
Codec ID                                 : DX50
Codec ID/Hint                            : DivX 5
Duration                                 : 1h 33mn
Bit rate                                 : 1 682 Kbps
Width                                    : 704 pixels
Height                                   : 448 pixels
Display aspect ratio                     : 1.571
Frame rate                               : 25.000 fps
Color space                              : YUV
Chroma subsampling                       : 4:2:0
Bit depth                                : 8 bits
Scan type                                : Progressive
Compression mode                         : Lossy
Bits/(Pixel*Frame)                       : 0.213
Stream size                              : 1.10 GiB (89%)
Writing library                          : DivX 6.8.5 (UTC 2009-08-20)

Audio
ID                                       : 1
Format                                   : AC-3
Format/Info                              : Audio Coding 3
Mode extension                           : CM (complete main)
Codec ID                                 : 2000
Duration                                 : 1h 33mn
Bit rate mode                            : Constant
Bit rate                                 : 192 Kbps
Channel(s)                               : 2 channels
Channel positions                        : Front: L R
Sampling rate                            : 48.0 KHz
Bit depth                                : 16 bits
Compression mode                         : Lossy
Stream size                              : 128 MiB (10%)
Alignment                                : Split accross interleaves
Interleave, duration                     : 40 ms (1.00 video frame)
Interleave, preload duration             : 500 ms


скриншот  скриншот  скриншот  скриншот  
piratbit.pw



Скачать Фантоцци 2000 – Клонирование через торрент http://pic1.kartinco.top/images/10/cptvs.jpg Скачать фильм Фантоцци 2000 – Клонирование через торрент бесплантно в хорошем качестве Описание: Руководство Мега-Фирмы обеспокоено тем, что сотрудники совершенно выбились из-под контроля. Вдруг они вспоминают про самого ... 10 10 6
Торрент: Зарегистрирован [2015-11-25 18:59] · скачан: 105 раз
Статус: √ проверено
Размер: 1.23 GB
Как cкачать? Как скачать Фантоцци 2000 – Клонирование через торрент | qTorrent


>> Регистрируемся здесь <<






Отзывы и комментарии о схеме читаем и пишем здесь: ---> Отзывы и комментарии о схеме

Новые благодарочки в телеграм довольных пользователей:
скриншот   скриншот   скриншот   скриншот   скриншот
    Дорогой пользователь! Огромная просьба, поблагодарите релизера, оцените раздачу и оставьте свои комментарий, если Вы скачали Фантоцци 2000 – Клонирование через торрент бесплатно! Внесите свою лепту в развитие PiratBit!
    Комментировать посты могут только пользователи прошедшие не сложную регистрацию
    Показать сообщения:    

    Фантоцци 2000 – Клонирование через торрент
    Скачать бесплатно Фантоцци 2000 – Клонирование
    Фантоцци 2000 – Клонирование скачать торрент
    Фантоцци 2000 – Клонирование смотреть онлайн
    Cкачать фильм Фантоцци 2000 – Клонирование бесплатно
    Фантоцци 2000 – Клонирование скачать торрент в хорошем качестве
    Фантоцци 2000 – Клонирование смотреть онлайн бесплатно в хорошем качестве


    Вы не можете начинать темы
    Вы не можете отвечать на сообщения
    Вы не можете редактировать свои сообщения
    Вы не можете удалять свои сообщения
    Вы не можете голосовать в опросах
    Вы не можете прикреплять файлы к сообщениям
    Вы можете скачивать файлы