1 сезон

1 сезон

iTunes

1

КиноПоиск HD

Кинопоиск HD

iTunes

13

1 сезон

RePack

30

Новинка

ВАЖНО

ИГРА 18+

pack

RePack

MK11
pack

Легкие деньги

RePack

jed

RePack

fifa19

RePack

RDR2

RePack

NEED FOR SPEED™ PAYBACK

4 сезон

9 сезон

Бесстыжие 9 сезон

Все сериалы

все сериалы на PB.wtf

RePack

FAR CRY 5
  
Magnet ссылка

Великий гипнотизёр / Cui mian da shi (Лэсте Чэнь / Leste Chen) [2014, Китай, триллер, драма, детектив, BDRip-AVC от sokol_ok] AVO piratbit.pw

Великий гипнотизёр через торрент piratbit.pw

Раздают: 1 [ 0 KB/s ]
Размер: 1.45 GB | Добавлен: 5 лет 4 мес. назад | Торрент скачан:203 раза
Скачать  

25-11-2015 16:01 Великий гипнотизёр Скачать торрент  

Великий гипнотизёр
Cui mian da shi


Страна: Китай
Жанр: триллер, драма, детектив
Год выпуска: 2014
Продолжительность: 01:41:29

Перевод: Авторский (одноголосый, закадровый) [А. Дольский]
Субтитры: русские, английские
Оригинальная аудиодорожка: нет

Режиссер: Лэсте Чэнь / Leste Chen

В ролях: Джин Ху, Жонг Люй, Карен Мок, Яоцин Ван, Сюй Чжэн

Описание:
История об известном психологе с блестящей карьерой. Однажды он сталкивается с проблемным пациентом, встречи с которым даются ему непросто... Релиз:

Автор рипа: Stalker oK

Сэмпл

Качество видео: BDRip-AVC [Blu-ray Remux 1080p]
Формат видео: MKV
Видео кодек: AVC
Аудио кодек: AC3
Видео: 1600 Кбит/сек, 1032x432 (2.35:1), 24 кадр/сек, AVC
Аудио: русский, 448 Кбит/сек, 48 КГц, 16 бит, 5.1, AC3
Навигация по главам: есть

General
Unique ID : 214259985445266150516663660696949720126 (0xA130F8E122CA0C679D5F3587E663843E)
Complete name : N:\Rips\Cui mian da shi The Great Hypnotist\Cui.mian.da.shi.2014.BDRip-AVC.AVO.1.45Gb.stalkerok.new-team.mkv
Format : Matroska
File size : 1.45 GiB
Duration : 1h 41mn
Overall bit rate : 2 045 Kbps
Movie name : Cui mian da shi (2014) (New-Team) (Rip by Stalker oK)
Encoded date : UTC 2015-11-25 15:37:43
Writing application : mkvmerge v7.9.0 ('Birds') 64bit
Writing library : libebml v1.3.1 + libmatroska v1.4.2

Video
ID : 1
Format : AVC
Format/Info : Advanced Video Codec
Format profile : High@L4.1
Format settings, CABAC : Yes
Format settings, ReFrames : 12 frames
Codec ID : V_MPEG4/ISO/AVC
Duration : 1h 41mn
Bit rate : 1 600 Kbps
Width : 1 032 pixels
Height : 432 pixels
Display aspect ratio : 2.35:1
Frame rate : 24.000 fps
Color space : YUV
Chroma subsampling : 4:2:0
Bit depth : 8 bits
Scan type : Progressive
Bits/(Pixel*Frame) : 0.150
Stream size : 1.10 GiB (76%)
Title : Cui mian da shi (2014) (New-Team) (Rip by Stalker oK)
Writing library : x264 core 146 r2538kMod 121396c
Encoding settings : cabac=1 / ref=12 / deblock=1:-3:-3 / analyse=0x3:0x133 / me=umh / subme=11 / psy=1 / fade_compensate=0.00 / psy_rd=1.00:0.12 / mixed_ref=1 / me_range=48 / chroma_me=1 / trellis=2 / 8x8dct=1 / cqm=0 / deadzone=21,11 / fast_pskip=0 / chroma_qp_offset=-3 / threads=12 / lookahead_threads=3 / sliced_threads=0 / nr=0 / decimate=0 / interlaced=0 / bluray_compat=0 / constrained_intra=0 / fgo=0 / bframes=14 / b_pyramid=2 / b_adapt=2 / b_bias=0 / direct=3 / weightb=1 / open_gop=0 / weightp=2 / keyint=240 / keyint_min=24 / scenecut=40 / intra_refresh=0 / rc_lookahead=40 / rc=2pass / mbtree=0 / bitrate=1600 / ratetol=1.0 / qcomp=0.70 / qpmin=0 / qpmax=69 / qpstep=4 / cplxblur=20.0 / qblur=0.5 / vbv_maxrate=50000 / vbv_bufsize=62500 / nal_hrd=none / filler=0 / ip_ratio=1.40 / pb_ratio=1.30 / aq=3:0.95

Audio
ID : 2
Format : AC-3
Format/Info : Audio Coding 3
Mode extension : CM (complete main)
Codec ID : A_AC3
Duration : 1h 41mn
Bit rate mode : Constant
Bit rate : 448 Kbps
Channel(s) : 6 channels
Channel positions : Front: L C R, Side: L R, LFE
Sampling rate : 48.0 KHz
Bit depth : 16 bits
Compression mode : Lossy
Stream size : 325 MiB (22%)
Language : Russian

Text #1
ID : 3
Format : UTF-8
Codec ID : S_TEXT/UTF8
Codec ID/Info : UTF-8 Plain Text
Title : перевод julz_nsk
Language : Russian

Text #2
ID : 4
Format : ASS
Codec ID : S_TEXT/ASS
Codec ID/Info : Advanced Sub Station Alpha
Compression mode : Lossless
Title : перевод Hentai
Language : Russian

Text #3
ID : 5
Format : UTF-8
Codec ID : S_TEXT/UTF8
Codec ID/Info : UTF-8 Plain Text
Language : English

Menu
00:00:00.000 : en:Chapter 1
00:08:00.208 : en:Chapter 2
00:13:46.915 : en:Chapter 3
00:18:17.000 : en:Chapter 4
00:23:09.165 : en:Chapter 5
00:27:47.415 : en:Chapter 6
00:31:45.833 : en:Chapter 7
00:36:59.250 : en:Chapter 8
00:40:44.416 : en:Chapter 9
00:47:43.041 : en:Chapter 10
00:53:07.666 : en:Chapter 11
00:57:16.208 : en:Chapter 12
01:01:28.250 : en:Chapter 13
01:04:57.500 : en:Chapter 14
01:12:12.082 : en:Chapter 15
01:17:50.207 : en:Chapter 16
01:19:34.125 : en:Chapter 17
01:26:53.957 : en:Chapter 18
01:31:43.250 : en:Chapter 19
01:34:09.457 : en:Chapter 20
piratbit.pw



Скачать Великий гипнотизёр через торрент http://i72.fastpic.ru/big/2015/0531/46/68ef8a2783b58e5344cc30bbd3f1b046.png Скачать фильм Великий гипнотизёр через торрент бесплантно в хорошем качестве Описание:История об известном психологе с блестящей карьерой. Однажды он сталкивается с проблемным пациентом, встречи с которым даются ему ... 8.4 10 5
Info! Золотая раздача, скачанное не засчитывается.
Торрент: Зарегистрирован [2015-11-25 16:01] · скачан: 203 раз
Статус: √ проверено
Размер: 1.45 GB
Как cкачать? Как скачать Великий гипнотизёр через торрент | UTorrent

28-11-2019 20:33  

Отключить всю рекламу на сайте

25-11-2015 17:31 Великий гипнотизёр Скачать торрент  

Ok!piratbit.pw



    Дорогой пользователь! Огромная просьба, поблагодарите релизера, оцените раздачу и оставьте свои комментарий, если Вы скачали Великий гипнотизёр через торрент бесплатно! Внесите свою лепту в развитие PiratBit!
    Комментировать посты могут только пользователи прошедшие не сложную регистрацию
    Показать сообщения:    

    Великий гипнотизёр через торрент
    Скачать бесплатно Великий гипнотизёр
    Великий гипнотизёр скачать торрент
    Великий гипнотизёр смотреть онлайн
    Cкачать фильм Великий гипнотизёр бесплатно
    Великий гипнотизёр скачать торрент в хорошем качестве
    Великий гипнотизёр смотреть онлайн бесплатно в хорошем качестве


    Вы не можете начинать темы
    Вы не можете отвечать на сообщения
    Вы не можете редактировать свои сообщения
    Вы не можете удалять свои сообщения
    Вы не можете голосовать в опросах
    Вы не можете прикреплять файлы к сообщениям
    Вы можете скачивать файлы