Ссылка на приватное зеркало всего за 1$. Внимание количество ограничено!!!

iTunes

iTunes

iTunes

1

iTunes

iTunes

iTunes

iTunes

iTunes

30
pack

$ от Little Big

ВАЖНО

!!Акция!!

Alien_RageХит недели

RePack

Resident Evil 21

ИГРА 18+

pack

RePack

jed

!!Акция!!

Alien_Rage

RePack

fifa19

RePack

Assassins Creed: Odyssey

RePack

NEED FOR SPEED™ PAYBACK

4 сезон

9 сезон

Бесстыжие 9 сезон

Все сериалы

все сериалы на PB.wtf

RePack

FAR CRY 5
  

Лифт на эшафот / Ascenseur pour l'échafaud (Луи Малль) [1957, триллер, драма, криминал, BDRip AVC by msltel] MVO, DVO, AVO piratbit.pw

Лифт на эшафот через торрент piratbit.pw

Размер: 1.95 GB | Добавлен: 4 года 7 мес. назад | Торрент скачан:10 раз
Скачать  

24-11-2015 12:00 Лифт на эшафот Скачать торрент  

Название: Лифт на эшафот
Оригинальное название: Ascenseur pour l'échafaud
Год выпуска: 1957
Страна: Франция
Жанр: триллер, драма, криминал
Продолжительность: 01:31:08
Перевод: профессиональный многоголосый, профессиональный двухголосый, авторский

Режиссёр: Луи Малль

В ролях: Жанна Моро, Морис Роне, Лино Вентура, Шарль Деннер, Жерар Дарьё, Юбер Дешам, Жорж Пужули, Йори Бертен, Жан Уолл, Эльга Андерсен

Описание: Жена с любовником планируют и осуществляют убийство мужа. Но «идеального» преступления не получается. Он забывает на балконе верёвку, по которой залез в окно офиса, и, возвращаясь за ней, застревает в лифте...



Качество: BDRip AVC
Формат: MKV
Видео: MPEG-4 AVC, 2239 Kбит/с, 790x576, 24 кадр/с
Аудио 1: русский, AC3, 192 kbps, 2 ch, 48 kHz [профессиональный многоголосый, Cinema Prestige]
Аудио 2: русский, AC3, 192 kbps, 1 ch, 48 kHz [профессиональный двухголосый, клубы Артхаус и Феникс]
Аудио 3: русский, AC3, 192 kbps, 2 ch, 48 kHz [авторский, Григорий Либергал]
Аудио 4: французский, AC3, 192 kbps, 2 ch, 48 kHz [оригинал]
Субтитры 1: русские (Cinema Prestige)
Субтитры 2: русские (leburs)
Субтитры 3: английские
Общее
Уникальный идентификатор : 178631269644648483849630559155664175174 (0x866321912999641F8E8448F9A5BFC046)
Полное имя : D:\Video\Лифт на эшафот.1958.BDRip.AVC.mkv
Формат : Matroska
Версия формата : Version 4 / Version 2
Размер файла : 1,95 Гбайт
Продолжительность : 1 ч. 31 м.
Общий поток : 3068 Кбит/сек
Дата кодирования : UTC 2015-11-23 11:01:19
Программа кодирования : mkvmerge v8.2.0 ('World of Adventure') 64bit
Библиотека кодирования : libebml v1.3.1 + libmatroska v1.4.2
DURATION : 01:30:33.875000000
NUMBER_OF_FRAMES : 738
NUMBER_OF_BYTES : 21888
_STATISTICS_WRITING_APP : mkvmerge v8.2.0 ('World of Adventure') 64bit
_STATISTICS_WRITING_DATE_UTC : 2015-11-23 11:01:19
_STATISTICS_TAGS : BPS DURATION NUMBER_OF_FRAMES NUMBER_OF_BYTES

Видео
Идентификатор : 1
Формат : AVC
Формат/Информация : Advanced Video Codec
Профиль формата : High@L4.1
Параметр CABAC формата : Да
Параметр ReFrames формата : 9 кадров
Идентификатор кодека : V_MPEG4/ISO/AVC
Продолжительность : 1 ч. 31 м.
Битрейт : 2239 Кбит/сек
Ширина : 790 пикселей
Высота : 576 пикселей
Соотношение сторон : 1,372
Режим частоты кадров : Постоянный
Частота кадров : 24,000 кадра/сек
Цветовое пространство : YUV
Субдискретизация насыщенности : 4:2:0
Битовая глубина : 8 бит
Тип развёртки : Прогрессивная
Бит/(Пиксели*Кадры) : 0.205
Размер потока : 1,43 Гбайт (73%)
Библиотека кодирования : x264 core 146 r2538 121396c
Настройки программы : cabac=1 / ref=9 / deblock=1:-1:-1 / analyse=0x3:0x113 / me=umh / subme=10 / psy=1 / psy_rd=1.00:0.15 / mixed_ref=1 / me_range=32 / chroma_me=1 / trellis=2 / 8x8dct=1 / cqm=0 / deadzone=21,11 / fast_pskip=1 / chroma_qp_offset=-3 / threads=6 / lookahead_threads=1 / sliced_threads=0 / nr=0 / decimate=1 / interlaced=0 / bluray_compat=0 / constrained_intra=0 / bframes=10 / b_pyramid=2 / b_adapt=2 / b_bias=0 / direct=1 / weightb=1 / open_gop=0 / weightp=2 / keyint=230 / keyint_min=23 / scenecut=40 / intra_refresh=0 / rc_lookahead=40 / rc=crf / mbtree=0 / crf=20.0 / qcomp=0.60 / qpmin=0 / qpmax=69 / qpstep=4 / vbv_maxrate=40000 / vbv_bufsize=50000 / crf_max=0.0 / nal_hrd=none / filler=0 / ip_ratio=1.40 / pb_ratio=1.30 / aq=1:1.00
Язык : French
Default : Да
Forced : Нет
DURATION : 01:31:08.000000000
NUMBER_OF_FRAMES : 131232
NUMBER_OF_BYTES : 1570269364
_STATISTICS_WRITING_APP : mkvmerge v8.2.0 ('World of Adventure') 64bit
_STATISTICS_WRITING_DATE_UTC : 2015-11-23 11:01:19
_STATISTICS_TAGS : BPS DURATION NUMBER_OF_FRAMES NUMBER_OF_BYTES

Аудио #1
Идентификатор : 2
Формат : AC-3
Формат/Информация : Audio Coding 3
Расширение режима : CM (complete main)
Параметр Endianness формата : Big
Идентификатор кодека : A_AC3
Продолжительность : 1 ч. 31 м.
Вид битрейта : Постоянный
Битрейт : 192 Кбит/сек
Каналы : 2 канала
Расположение каналов : Front: L R
Частота : 48,0 КГц
Метод сжатия : С потерями
Размер потока : 125 Мбайт (6%)
Заголовок : MVO (Cinema Prestige)
Язык : Russian
Default : Да
Forced : Нет

Аудио #2
Идентификатор : 3
Формат : AC-3
Формат/Информация : Audio Coding 3
Расширение режима : CM (complete main)
Параметр Endianness формата : Big
Идентификатор кодека : A_AC3
Продолжительность : 1 ч. 31 м.
Вид битрейта : Постоянный
Битрейт : 192 Кбит/сек
Каналы : 1 канал
Расположение каналов : Front: C
Частота : 48,0 КГц
Метод сжатия : С потерями
Размер потока : 125 Мбайт (6%)
Заголовок : DVO (клубы Артхаус и Феникс)
Язык : Russian
Default : Нет
Forced : Нет

Аудио #3
Идентификатор : 4
Формат : AC-3
Формат/Информация : Audio Coding 3
Расширение режима : CM (complete main)
Параметр Endianness формата : Big
Идентификатор кодека : A_AC3
Продолжительность : 1 ч. 31 м.
Вид битрейта : Постоянный
Битрейт : 192 Кбит/сек
Каналы : 2 канала
Расположение каналов : Front: L R
Частота : 48,0 КГц
Метод сжатия : С потерями
Размер потока : 125 Мбайт (6%)
Заголовок : AVO (Григорий Либергал)
Язык : Russian
Default : Нет
Forced : Нет

Аудио #4
Идентификатор : 5
Формат : AC-3
Формат/Информация : Audio Coding 3
Расширение режима : CM (complete main)
Параметр Endianness формата : Big
Идентификатор кодека : A_AC3
Продолжительность : 1 ч. 31 м.
Вид битрейта : Постоянный
Битрейт : 192 Кбит/сек
Каналы : 2 канала
Расположение каналов : Front: L R
Частота : 48,0 КГц
Метод сжатия : С потерями
Размер потока : 125 Мбайт (6%)
Заголовок : Original
Язык : French
Default : Нет
Forced : Нет

Текст #1
Идентификатор : 6
Формат : UTF-8
Идентификатор кодека : S_TEXT/UTF8
Идентификатор кодека/Информация : UTF-8 Plain Text
Заголовок : русский (Cinema Prestige)
Язык : Russian
Default : Нет
Forced : Нет

Текст #2
Идентификатор : 7
Формат : UTF-8
Идентификатор кодека : S_TEXT/UTF8
Идентификатор кодека/Информация : UTF-8 Plain Text
Заголовок : русский (leburs)
Язык : Russian
Default : Нет
Forced : Нет

Текст #3
Идентификатор : 8
Формат : UTF-8
Идентификатор кодека : S_TEXT/UTF8
Идентификатор кодека/Информация : UTF-8 Plain Text
Заголовок : английский
Default : Нет
Forced : Нет
piratbit.pw



Скачать Лифт на эшафот через торрент http://s019.radikal.ru/i615/1511/91/e73a72dc899a.png Скачать фильм Лифт на эшафот через торрент бесплантно в хорошем качестве Описание: Жена с любовником планируют и осуществляют убийство мужа. Но «идеального» преступления не получается. Он забывает на балконе ... 5 10 1
Торрент: Зарегистрирован [2015-11-24 12:00] · скачан: 10 раз
Статус: √ проверено
Размер: 1.95 GB
Как cкачать? Как скачать Лифт на эшафот через торрент | qTorrent

28-11-2019 20:33  

Отключить всю рекламу на сайте

    Дорогой пользователь! Огромная просьба, поблагодарите релизера, оцените раздачу и оставьте свои комментарий, если Вы скачали Лифт на эшафот через торрент бесплатно! Внесите свою лепту в развитие PiratBit!
    Комментировать посты могут только пользователи прошедшие не сложную регистрацию
    Показать сообщения:    

    Лифт на эшафот через торрент
    Скачать бесплатно Лифт на эшафот
    Лифт на эшафот скачать торрент
    Лифт на эшафот смотреть онлайн
    Cкачать фильм Лифт на эшафот бесплатно
    Лифт на эшафот скачать торрент в хорошем качестве
    Лифт на эшафот смотреть онлайн бесплатно в хорошем качестве


    Вы не можете начинать темы
    Вы не можете отвечать на сообщения
    Вы не можете редактировать свои сообщения
    Вы не можете удалять свои сообщения
    Вы не можете голосовать в опросах
    Вы не можете прикреплять файлы к сообщениям
    Вы можете скачивать файлы