Ссылка на приватное зеркало всего за 1$. Внимание количество ограничено!!!

iTunes

1+1

iTunes

мы

MV0

1

WEB-DLRip

Джокер

Пифагор

Ведьмак / The Witcher сериал

iTunes

ПШазам

iTunes

Оно 2

iTunes

30
pack

Вам бонус

ВАЖНО

!!Акция!!

Alien_RageХит недели

RePack

Resident Evil 21

ИГРА 18+

pack

RePack

jed

!!Акция!!

Alien_Rage

RePack

fifa19

RePack

Assassins Creed: Odyssey

RePack

NEED FOR SPEED™ PAYBACK

4 сезон

9 сезон

Бесстыжие 9 сезон

Все сериалы

все сериалы на PB.wtf

RePack

FAR CRY 5
  

Интервью с вампиром / Interview with the Vampire: The Vampire Chronicles (Нил Джордан) [1994, ужасы, фэнтези, драма, BDRip-AVC, Дубляж] от R.G. Resident piratbit.pw

Интервью с вампиром через торрент piratbit.pw

Раздают: 2 [ 0 KB/s ]
Размер: 2.17 GB | Добавлен: 4 года 3 мес. назад | Торрент скачан:200 раз
Скачать  

24-11-2015 05:49 Интервью с вампиром Скачать торрент  


Интервью с вампиром / Interview with the Vampire: The Vampire Chronicles
««Испей моей крови и живи вечно»»

ИНФОРМАЦИЯ:
Год выпуска:1994
Страна: США
Жанр: ужасы, фэнтези, драма
Продолжительность: 02:02:33
Перевод: Дубляж
Субтитры: Нет
Режиссер: Нил Джордан

В Ролях:


Брэд Питт (Louis de Pointe du Lac), Том Круз (Lestat de Lioncourt), Кирстен Данст (Claudia), Антонио Бандерас (Armand), Стивен Ри (Santiago), Кристиан Слэйтер (Daniel Malloy), Вирджиния МакКоллэм (Whore on Waterfront), Джон МакКоннелл (Gambler), Майк Силиг (Pimp), Беллина Логан (Tavern Girl), Тэнди Ньютон (Yvette), Лайла Хэй Оуэн (Widow St. Clair)

Описание:
К падкому на сенсации журналисту приходит вампир, чтобы поведать историю своей жизни. Все началось в 1791 году, когда молодой плантатор Луи, потеряв жену и ребенка, захотел умереть, но «родился для мрака».

  • Мировая премьера:11 ноября 1994

    ТЕХ.ДАННЫЕ:
    Качество: BDRip-AVCАвтор рипа: by Ворон / R.G. Resident
    Формат: MKV
    Видео: AVC, 1024x576 (16:9), 2090 kbps, 23,976 fps, 0,148 bpp
    Аудио: русский / AC3 / 5.1 / 48 kHz / 448 kbps / 16 bit ||


    General
    Unique ID : 205429640074380664955285368683820593893 (0x9A8C4F3D40BA333D997E1A414231B2E5)
    Complete name : D:\Торенты\Раздачи\Интервью с вампиром_BDRip-AVC_.R.G. Resident .mkv
    Format : Matroska
    Format version : Version 4 / Version 2
    File size : 2.17 GiB
    Duration : 2h 2mn
    Overall bit rate : 2 539 Kbps
    Movie name : R.G. Resident_pb.wtf
    Encoded date : UTC 2015-11-24 05:33:08
    Writing application : mkvmerge v7.4.0 ('Circles') 64bit built on Dec 12 2014 12:19:56
    Writing library : libebml v1.3.0 + libmatroska v1.4.1
    DURATION : 02:02:33.376000000
    NUMBER_OF_FRAMES : 229793
    NUMBER_OF_BYTES : 411789056
    _STATISTICS_WRITING_APP : mkvmerge v7.4.0 ('Circles') 64bit built on Dec 12 2014 12:19:56
    _STATISTICS_WRITING_DATE_UTC : 2015-11-24 05:33:08
    _STATISTICS_TAGS : BPS DURATION NUMBER_OF_FRAMES NUMBER_OF_BYTES

    Video
    ID : 1
    Format : AVC
    Format/Info : Advanced Video Codec
    Format profile : High@L4.1
    Format settings, CABAC : Yes
    Format settings, ReFrames : 4 frames
    Codec ID : V_MPEG4/ISO/AVC
    Duration : 2h 2mn
    Bit rate : 2 090 Kbps
    Width : 1 024 pixels
    Height : 576 pixels
    Display aspect ratio : 16:9
    Frame rate : 23.976 fps
    Color space : YUV
    Chroma subsampling : 4:2:0
    Bit depth : 8 bits
    Scan type : Progressive
    Bits/(Pixel*Frame) : 0.148
    Stream size : 1.75 GiB (80%)
    Title : R.G. Resident_pb.wtf
    Writing library : x264 core 125 r2208 d9d2288
    Encoding settings : cabac=1 / ref=4 / deblock=1:-2:-2 / analyse=0x3:0x133 / me=umh / subme=9 / psy=1 / psy_rd=1.00:0.10 / mixed_ref=1 / me_range=16 / chroma_me=1 / trellis=2 / 8x8dct=1 / cqm=0 / deadzone=21,11 / fast_pskip=0 / chroma_qp_offset=-3 / threads=6 / lookahead_threads=1 / sliced_threads=0 / nr=0 / decimate=0 / interlaced=0 / bluray_compat=0 / constrained_intra=0 / bframes=7 / b_pyramid=2 / b_adapt=2 / b_bias=0 / direct=3 / weightb=1 / open_gop=0 / weightp=2 / keyint=250 / keyint_min=23 / scenecut=40 / intra_refresh=0 / rc=2pass / mbtree=0 / bitrate=2090 / ratetol=1.0 / qcomp=0.60 / qpmin=0 / qpmax=69 / qpstep=4 / cplxblur=20.0 / qblur=0.5 / ip_ratio=1.40 / pb_ratio=1.30 / aq=1:0.80
    Language : Russian
    Default : Yes
    Forced : No

    Audio
    ID : 2
    Format : AC-3
    Format/Info : Audio Coding 3
    Mode extension : CM (complete main)
    Codec ID : A_AC3
    Duration : 2h 2mn
    Bit rate mode : Constant
    Bit rate : 448 Kbps
    Channel(s) : 6 channels
    Channel positions : Front: L C R, Side: L R, LFE
    Sampling rate : 48.0 KHz
    Bit depth : 16 bits
    Compression mode : Lossy
    Stream size : 393 MiB (18%)
    Title : Дубляж
    Language : Russian
    Default : Yes
    Forced : No
    Скриншоты:

    © Оформление by .::Ворон::.
    piratbit.pw



  • Скачать Интервью с вампиром через торрент http://i67.fastpic.ru/big/2015/1122/9c/d3a6082b3d16178948111542b55ef89c.png Скачать фильм Интервью с вампиром через торрент бесплантно в хорошем качестве Описание: К падкому на сенсации журналисту приходит вампир, чтобы поведать историю своей жизни. Все началось в 1791 году, когда молодой ... 10 10 6
    Info! Золотая раздача, скачанное не засчитывается.
    Торрент: Зарегистрирован [2015-11-24 09:48] · скачан: 200 раз
    Статус: √ проверено
    Размер: 2.17 GB
    Как cкачать? Как скачать Интервью с вампиром через торрент | qTorrent



    Последний раз редактировалось: Ворон (2015-11-24 09:49), всего редактировалось 2 раз(а)

    28-11-2019 20:33  

    Отключить всю рекламу на сайте

      Дорогой пользователь! Огромная просьба, поблагодарите релизера, оцените раздачу и оставьте свои комментарий, если Вы скачали Интервью с вампиром через торрент бесплатно! Внесите свою лепту в развитие PiratBit!
      Комментировать посты могут только пользователи прошедшие не сложную регистрацию
      Показать сообщения:    

      Интервью с вампиром через торрент
      Скачать бесплатно Интервью с вампиром
      Интервью с вампиром скачать торрент
      Интервью с вампиром смотреть онлайн
      Cкачать фильм Интервью с вампиром бесплатно
      Интервью с вампиром скачать торрент в хорошем качестве
      Интервью с вампиром смотреть онлайн бесплатно в хорошем качестве


      Вы не можете начинать темы
      Вы не можете отвечать на сообщения
      Вы не можете редактировать свои сообщения
      Вы не можете удалять свои сообщения
      Вы не можете голосовать в опросах
      Вы не можете прикреплять файлы к сообщениям
      Вы можете скачивать файлы