Marvel's Avengers Deluxe Edition (супер цена) 159р. Внимание количество ограничено!!!

2 сезон

iTunes

iTunes

1

iTunes

iTunes

iTunes

WEBRip

iTunes

30
pack

Новость дня

ВАЖНО

!!Акция!!

Alien_RageХит недели

RePack

Horizon Zero Dawn

ИГРА 18+

pack

RePack

jed

!!Акция!!

Alien_Rage

RePack

fifa19

RePack

Assassins Creed: Odyssey

RePack

NEED FOR SPEED™ PAYBACK

4 сезон

9 сезон

Бесстыжие 9 сезон

Все сериалы

все сериалы на PB.wtf

RePack

FAR CRY 5
  

Война полов (Кирилл Кузин) [2015, комедия, WEB-DL 1080p, [iTunes] piratbit.pw

Война полов через торрент piratbit.pw

Размер: 2.97 GB | Добавлен: 4 года 10 мес. назад | Торрент скачан:511 раз
Скачать  

21-11-2015 21:57 Война полов Скачать торрент  


Война полов
««Мужики! Не расслабляйтесь!»»

ИНФОРМАЦИЯ:
Год выпуска:2015
Страна: Россия
Жанр: комедия
Продолжительность: 01:26:14
Перевод: Не требуется [iTunes]
Режиссер: Кирилл Кузин

В Ролях:


Харальд Розенстрём (Алексей), Александр Пальчиков (Виталик), Екатерина Кузнецова (Юля), Сабина Ахмедова (Соня), Алексей Демидов (Макс), Марина Федункив (Ирэна Адольфовна), Анатолий Белый, Kristelle, Борис Эстрин, Артем Семакин

Описание:
Что завтра на рассвете с каждым из нас случится, не знает никто. И когда ТРИ наших героя проснулись на необитаемом острове, в компании ДВУХ красивых... но не очень дружелюбных девушек... да еще без воды и еды... Вот тут они и поняли, что жизнь действительно полна сюрпризов!


ТЕХ.ДАННЫЕ:
Качество: WEB-DL 1080p
Формат: MKV
Видео: AVC, 1920x806 (2.40:1), 4444 kbps, 25 fps, 0,115 bpp
Аудио: русский / AC3 / 5.1 / 48 kHz / 384 kbps / 16 bit ||
Навигация по главам: есть


General
Unique ID : 219414773936303625242073654484366104318 (0xA511BF92FAE7B9589661BF66D0E996FE)
Complete name : D:\Торенты\V0iNa.P0loV.2015.O.WEB-DL.1080p.mkv
Format : Matroska
Format version : Version 4 / Version 2
File size : 2.97 GiB
Duration : 1h 26mn
Overall bit rate : 4 927 Kbps
Encoded date : UTC 2015-11-21 19:18:00
Writing application : mkvmerge v8.3.0 ('Over the Horizon') 64bit
Writing library : libebml v1.3.1 + libmatroska v1.4.2

Video
ID : 1
Format : AVC
Format/Info : Advanced Video Codec
Format profile : High@L4.0
Format settings, CABAC : Yes
Format settings, ReFrames : 5 frames
Codec ID : V_MPEG4/ISO/AVC
Duration : 1h 26mn
Bit rate : 4 445 Kbps
Width : 1 920 pixels
Height : 806 pixels
Display aspect ratio : 2.40:1
Frame rate : 25.000 fps
Color space : YUV
Chroma subsampling : 4:2:0
Bit depth : 8 bits
Scan type : Progressive
Bits/(Pixel*Frame) : 0.115
Stream size : 2.68 GiB (90%)
Language : English
Default : Yes
Forced : No
Color primaries : BT.709-5, BT.1361, IEC 61966-2-4, SMPTE RP177
Transfer characteristics : BT.709-5, BT.1361
Matrix coefficients : BT.709-5, BT.1361, IEC 61966-2-4 709, SMPTE RP177

Audio
ID : 2
Format : AC-3
Format/Info : Audio Coding 3
Mode extension : CM (complete main)
Codec ID : A_AC3
Duration : 1h 26mn
Bit rate mode : Constant
Bit rate : 384 Kbps
Channel(s) : 6 channels
Channel positions : Front: L C R, Side: L R, LFE
Sampling rate : 48.0 KHz
Bit depth : 16 bits
Compression mode : Lossy
Stream size : 237 MiB (8%)
Language : Russian
Default : Yes
Forced : No

Menu
00:00:00.000 : en:Глава 1
00:05:01.000 : en:Глава 2
00:10:30.000 : en:Глава 3
00:15:50.000 : en:Глава 4
00:21:17.000 : en:Глава 5
00:26:34.000 : en:Глава 6
00:32:25.000 : en:Глава 7
00:38:19.000 : en:Глава 8
00:43:34.000 : en:Глава 9
00:49:02.000 : en:Глава 10
00:54:04.000 : en:Глава 11
01:00:06.000 : en:Глава 12
01:05:26.000 : en:Глава 13
01:11:52.000 : en:Глава 14
01:17:40.000 : en:Глава 15
01:23:34.000 : en:Глава 16
Скриншоты:

© Оформление by .::Ворон::.
piratbit.pw



Скачать Война полов через торрент http://pic.kartinco.top/images/6/ordi9.jpg Скачать фильм Война полов через торрент бесплантно в хорошем качестве Описание: Что завтра на рассвете с каждым из нас случится, не знает никто. И когда ТРИ наших героя проснулись на необитаемом острове, в ... 9.6 10 14
Info! Золотая раздача, скачанное не засчитывается.
Торрент: Зарегистрирован [2015-11-21 21:57] · скачан: 511 раз
Статус: √ проверено
Размер: 2.97 GB
Как cкачать? Как скачать Война полов через торрент | qTorrent

% Раздел Тема Автор DL S | L
Военное дело [ 18.34 GB ] Поля сражений / Champs de bataille [2014-2018 Документальный война история HDTVRip 720p] [VO] killermax2013 Скачать
1 | 0
Наши новые фильмы 2015 [ 1.37 GB ] Война полов [2015 WEB-DLRip Ворон Скачать
1 | 0
Наши новые фильмы 2015 [ 701 MB ] Война полов [2015 SATRip [Русский] Ворон Скачать
1 | 0
Научно-популярные фильмы [ 482 MB ] Война полов. Секс [2010 Документальный SATRip] L_E_X Скачать
1 | 0
Научно-популярные фильмы [ 339 MB ] WikiLeaks: война ложь и видеокассета / WikiLeaks: War Lies and Videotape [2010 Документальный SATRip] МИХА~ Скачать
1 | 0
Научно-популярные фильмы [ 471 MB ] Война полов. Внешность [2010 Документальный SATRip] L_E_X Скачать
1 | 0

28-11-2019 20:33  

Отключить всю рекламу на сайте

21-11-2015 22:00 Война полов Скачать торрент  

Война и мир полов

Не так давно, буквально весной этого года, компания «Энджой» представила вниманию общественности ленту «Женщины против мужчин», где герои перетягивали канат тремя парами на Кубе.

Осенью же этого года, как раз во время холодных дней и проливных дождей на экраны вышла картина уже Кирилла Кузина «Война полов». Во-первых, это выгодный маркетинговый ход. Ведь осенью посмотреть на тепло и свет яркого солнца — это хорошо. Во-вторых, картина хоть и не блещет сценарным открытием, но ленту «Энжджоя» напоминает только перетягиванием того же каната. Но так это ведь тема неисчерпаема. Тем более, тут идёт несколько всё иначе.

Куба Кубой, а необитаемый остров, где по случаю судьбы и воле сценаристов оказались главные герои, всегда таит больше загадочности и некой обречённости. Оно и понятно. Кстати, если посчитать главных действующих лиц на экране, то получается… ну, получается их, конечно, пять, но именно 3+2. «Три плюс два» советская комедия, конечно, более выдающаяся, об этом спора нет. Но «Война полов» Кузина способна разбавить досуг.

В чём главное отличие от «Ж vs. М» — герои не выглядят оскотинившимися. И это хорошо. Фильм становится светлее изнутри. И война та самая уже не является какой-то стервозной. Конечно, это больше для острастки. И, конечно, можно догадаться, чем же всё это закончится. Да даже из трейлера это можно понять.

Харальд Розенстрём, Александр Пальчиков, Алексей Демидов вкупе с Екатериной Кузнецовой и Сабиной Ахмедовой оставляют благоприятное впечатление после просмотра. Есть ещё и Марина Федункив, которой и вовсе доказывать ничего не нужно, она и так состоявшаяся личность. Костюмы героев со времён того самого маскарада становятся главной одеждой героев на острове.

В общем, фильм на удивление приятен. Почему «на удивление»? Думалось, что будет копирка с уже имеющихся лент. Но тут как-то по-своему всё.

7,5 из 10
klassenpiratbit.pw



    Дорогой пользователь! Огромная просьба, поблагодарите релизера, оцените раздачу и оставьте свои комментарий, если Вы скачали Война полов через торрент бесплатно! Внесите свою лепту в развитие PiratBit!
    Комментировать посты могут только пользователи прошедшие не сложную регистрацию
    Показать сообщения:    

    Война полов через торрент
    Скачать бесплатно Война полов
    Война полов скачать торрент
    Война полов смотреть онлайн
    Cкачать фильм Война полов бесплатно
    Война полов скачать торрент в хорошем качестве
    Война полов смотреть онлайн бесплатно в хорошем качестве


    Вы не можете начинать темы
    Вы не можете отвечать на сообщения
    Вы не можете редактировать свои сообщения
    Вы не можете удалять свои сообщения
    Вы не можете голосовать в опросах
    Вы не можете прикреплять файлы к сообщениям
    Вы можете скачивать файлы