1 сезон

1 сезон

iTunes

1

iTunes

Кинопоиск HD

iTunes

13

1 сезон

RePack

30

Deluxe

ВАЖНО

ИГРА 18+

pack

RePack

MK11
pack

Легкие деньги

RePack

jed

RePack

fifa19

RePack

RDR2

RePack

NEED FOR SPEED™ PAYBACK

4 сезон

9 сезон

Бесстыжие 9 сезон

Все сериалы

все сериалы на PB.wtf

RePack

FAR CRY 5
  
Magnet ссылка

Операция «Валькирия» / Valkyrie (Брайан Сингер) [2008 г., триллер, драма, военный, HDRip by Dean24] (Дубляж Лицензия) piratbit.pw

Операция «Валькирия» через торрент piratbit.pw

Размер: 2.18 GB | Добавлен: 5 лет 5 мес. назад | Торрент скачан:29 раз
Скачать  

21-11-2015 14:28 Операция «Валькирия» Скачать торрент  

Операция «Валькирия» / ValkyrieГод выпуска: 2008
Страна: США, Германия
Жанр: триллер, драма, военный
Продолжительность: 02:00:21
Перевод: Дубляж | Лицензия
Субтитры: Нет

Режиссер: Брайан Сингер
Продюссер: Гилберт Адлер, Кристофер МакКуорри, Брайан Сингер
Сценарий: Кристофер МакКуорри, Нэйтан Александр

Бюджет: $75 000 000
Премьера в мире: 25 декабря 2008



В ролях: Том Круз, Кеннет Брана, Билл Найи, Том Уилкинсон, Кэрис ван Хаутен, Томас Кречман, Теренс Стэмп, Эдди Иззард, Кевин МакНэлли, Кристиан Беркель, Всеволод Кузнецов, Александр Новиков, Владимир Герасимов, Борис Токарев, Ольга Плетнёва

Описание: История героя сопротивления полковника Клауса фон Штауффенберга, возглавившего заговор против Гитлера. В 1944 году он попытался взорвать диктатора, пронеся в портфеле бомбу, но все, что ему удалось — только ранить фюрера.

Качество: HDRip | BDRip 720p
Формат: AVI
Видео кодек: XviD
Аудио кодек: AC3
Видео: 704x384 (1.83:1), 23.976 fps, XviD build 50 ~2202 kbps avg, 0.34 bit/pixel
Аудио: 48 kHz, AC3 Dolby Digital, 3/2 (L,C,R,l,r) + LFE ch, ~384 kbps



Автор рипа: Dean24
|
Общее
Полное имя : D:\Мои документы\Фильмы\Сайт\Valkyrie.HDRip.avi
Формат : AVI
Формат/Информация : Audio Video Interleave
Профиль формата : OpenDML
Размер файла : 2,18 Гбайт
Продолжительность : 2 ч. 0 м.
Общий поток : 2594 Кбит/сек
Программа кодирования : VirtualDubMod 1.5.10.3 | www.virtualdub-fr.org || (build 2550/release)
Библиотека кодирования : VirtualDubMod build 2550/release

Видео
Идентификатор : 0
Формат : MPEG-4 Visual
Профиль формата : Advanced Simple@L5
Параметр BVOP формата : 3
Параметр QPel формата : Нет
Параметр GMC формата : Без точки перехода
Параметр матрицы формата : Default (H.263)
Идентификатор кодека : XVID
Идентификатор кодека/Подсказка : XviD
Продолжительность : 2 ч. 0 м.
Битрейт : 2198 Кбит/сек
Ширина : 704 пикселя
Высота : 384 пикселя
Соотношение сторон : 1,85:1
Частота кадров : 23,976 кадра/сек
Цветовое пространство : YUV
Субдискретизация насыщенности : 4:2:0
Битовая глубина : 8 бит
Тип развёртки : Прогрессивная
Метод сжатия : С потерями
Бит/(Пиксели*Кадры) : 0.339
Размер потока : 1,85 Гбайт (85%)
Библиотека кодирования : XviD 1.2.1 (UTC 2008-12-04)

Аудио
Идентификатор : 1
Формат : AC-3
Формат/Информация : Audio Coding 3
Расширение режима : CM (complete main)
Параметр Endianness формата : Big
Идентификатор кодека : 2000
Продолжительность : 2 ч. 0 м.
Вид битрейта : Постоянный
Битрейт : 384 Кбит/сек
Каналы : 6 каналов
Расположение каналов : Front: L C R, Side: L R, LFE
Частота : 48,0 КГц
Битовая глубина : 16 бит
Метод сжатия : С потерями
Размер потока : 331 Мбайт (15%)
Выравнивание : Разделение по промежуткам
Продолжительность промежутка : 42 мс. (1,00 видеокадр)
Время предзагрузки промежутка : 500 мс.

piratbit.pw



Скачать Операция «Валькирия» через торрент http://i67.fastpic.ru/big/2015/1121/99/609ad1094f4fc2e870c2bb046a502e99.png Скачать фильм Операция «Валькирия» через торрент бесплантно в хорошем качестве Описание: История героя сопротивления полковника Клауса фон Штауффенберга, возглавившего заговор против Гитлера. В 1944 году он попытался ... 10 10 5
Info! Серебряная раздача, засчитывается только 50% скачанного.
Торрент: Зарегистрирован [2015-11-21 14:28] · скачан: 29 раз
Статус: √ проверено
Размер: 2.18 GB
Как cкачать? Как скачать Операция «Валькирия» через торрент | UTorrent

% Раздел Тема Автор DL S | L
Фильмы [HD 720p, 1080p] (Хороший звук DUB, MVO) [ 6.56 GB ] Операция Валькирия / Valkyrie [2008 военный история BDRip 720p] diletant Скачать
1 | 0
Фильмы [HD 720p, 1080p] (Хороший звук DUB, MVO) [ 14.63 GB ] Операция «Валькирия» / Valkyrie [2008 военный BDRip 1080p by msltel] DUB AVO msltel Скачать
1 | 0
Фильмы [HD 720p, 1080p] (Хороший звук DUB, MVO) [ 10.13 GB ] Операция Валькирия / Valkyrie [2008 военный история BDRip 1080p] diletant Скачать
1 | 0
Фильмы 2006-2008 [ 1.46 GB ] Операция «Валькирия» / Valkyrie [2008 военный BDRip. ] kostantin Скачать
1 | 0
Фильмы 2009 [ 1.45 GB ] Операция Валькирия / VALKYRIE [2008 военный история HDRip] DEVI Скачать
1 | 0
Фильмы 2006-2008 [ 1.45 GB ] Операция Валькирия / Valkyrie [2008 военный история ... HDRip] Venxxx Скачать
1 | 0

28-11-2019 20:33  

Отключить всю рекламу на сайте

21-11-2015 18:45 Операция «Валькирия» Скачать торрент  

ОТличный фильм. Советую yespiratbit.pw



    Дорогой пользователь! Огромная просьба, поблагодарите релизера, оцените раздачу и оставьте свои комментарий, если Вы скачали Операция «Валькирия» через торрент бесплатно! Внесите свою лепту в развитие PiratBit!
    Комментировать посты могут только пользователи прошедшие не сложную регистрацию
    Показать сообщения:    

    Операция «Валькирия» через торрент
    Скачать бесплатно Операция «Валькирия»
    Операция «Валькирия» скачать торрент
    Операция «Валькирия» смотреть онлайн
    Cкачать фильм Операция «Валькирия» бесплатно
    Операция «Валькирия» скачать торрент в хорошем качестве
    Операция «Валькирия» смотреть онлайн бесплатно в хорошем качестве


    Вы не можете начинать темы
    Вы не можете отвечать на сообщения
    Вы не можете редактировать свои сообщения
    Вы не можете удалять свои сообщения
    Вы не можете голосовать в опросах
    Вы не можете прикреплять файлы к сообщениям
    Вы можете скачивать файлы