1 сезон

3 сезон

iTunes

1

iTunes

DUB Netflix

iTunes

13

1 сезон

RePack

30

Deluxe

pack

Легкие деньги

ВАЖНО

ИГРА 18+

pack

RePack

MK11

RePack

jed

RePack

fifa19

RePack

RDR2

RePack

NEED FOR SPEED™ PAYBACK

4 сезон

9 сезон

Бесстыжие 9 сезон

Все сериалы

все сериалы на PB.wtf

RePack

FAR CRY 5

Anonymous, доброй ночи, мы не успеваем до 1 числа собрать деньги на оплату серверов, помогите нам пожалуйста в это трудное время. В качестве благодарности мы отключим Вам всю рекламу на сайте (укажите свой ник в строку Ваше имя)!

×
  
Magnet ссылка

Спецслужбы / Służby specjalne (Патрик Вега) [2014, боевик, триллер, драма, DVDRip] Любительский (двухголосый) [den904, DeadSno] piratbit.pw

Спецслужбы через торрент piratbit.pw

Размер: 1.65 GB | Добавлен: 5 лет 7 мес. назад | Торрент скачан:145 раз
Скачать  

13-11-2015 13:00 Спецслужбы Скачать торрент  

Спецслужбы / Służby specjalne

  • Год выхода: 2014
  • Жанр: боевик, триллер, драма, криминал
  • Страна: Польша
  • Продолжительность: 01:50:29
  • Перевод: Любительский (двухголосый) [den904, DeadSno] по переводу Professor'a
  • Режиссер: Патрик Вега
  • В ролях:

    Камила Баар (Joanna Cerat), Ольга Боладзь (Aleksandra Lach «Bialko»), Томаш Будыта, Януш Хабёр (Marian Bonka), Ян Фрыч, Анджей Грабовски (Przeor zakonu), Алдона Янковска (Halina Bonka), Йоанна Езевская, Ян Юревич, Беата Кавка (Dyrektor ABW), Paulina Klimaszewska (Psychologist Sylwia), Агата Кулеша (Dr. Anna Czerwonko)


  • "Спецслужбы" - это кино, открывающее кулисы жизни и работы офицеров тайных служб. Когда в 2006 году были ликвидированы Военно-инфорамционные службы (ВИС), политики поняли, что лишили страну глаз и ушей. Создается новая тайная спецслужба, призванная различными методами охранять покой граждан.

  • Качество: DVDRip
  • Формат: AVI
  • Видео кодек: XviD
  • Аудио кодек: AC3
  • Видео: XviD, 720x304 (2.35:1), 1938 kbps, 25 fps, 0,354 bpp
  • Аудио: AC3 / 2.0 / 48 kHz / 192 kbps / 16 bit

    Код:

    General
    Complete name                            : H:\Sluzby.Specjalne.2014.DVDRip.RU.L2.avi
    Format                                   : AVI
    Format/Info                              : Audio Video Interleave
    File size                                : 1.65 GiB
    Duration                                 : 1h 50mn
    Overall bit rate                         : 2 140 Kbps
    Writing application                      : VirtualDubMod 1.5.10.2 (build 2540/release)
    Writing library                          : VirtualDubMod build 2540/release

    Video
    ID                                       : 0
    Format                                   : MPEG-4 Visual
    Format profile                           : Advanced Simple@L5
    Format settings, BVOP                    : 2
    Format settings, QPel                    : No
    Format settings, GMC                     : No warppoints
    Format settings, Matrix                  : Default (H.263)
    Codec ID                                 : XVID
    Codec ID/Hint                            : XviD
    Duration                                 : 1h 50mn
    Bit rate                                 : 1 938 Kbps
    Width                                    : 720 pixels
    Height                                   : 304 pixels
    Display aspect ratio                     : 2.35:1
    Frame rate                               : 25.000 fps
    Color space                              : YUV
    Chroma subsampling                       : 4:2:0
    Bit depth                                : 8 bits
    Scan type                                : Progressive
    Compression mode                         : Lossy
    Bits/(Pixel*Frame)                       : 0.354
    Stream size                              : 1.50 GiB (91%)
    Writing library                          : XviD 64

    Audio
    ID                                       : 1
    Format                                   : AC-3
    Format/Info                              : Audio Coding 3
    Mode extension                           : CM (complete main)
    Codec ID                                 : 2000
    Duration                                 : 1h 50mn
    Bit rate mode                            : Constant
    Bit rate                                 : 192 Kbps
    Channel(s)                               : 2 channels
    Channel positions                        : Front: L R
    Sampling rate                            : 48.0 KHz
    Bit depth                                : 16 bits
    Compression mode                         : Lossy
    Stream size                              : 152 MiB (9%)
    Alignment                                : Split accross interleaves
    Interleave, duration                     : 40 ms (1.00 video frame)
    Interleave, preload duration             : 500 ms

    Скриншоты:


    © Оформление by -Lexx- piratbit.pw



  • Скачать Спецслужбы через торрент https://pic1.kartinco.top/images/61/stazu.jpg Скачать фильм Спецслужбы через торрент бесплантно в хорошем качестве qw.png "Спецслужбы" - это кино, открывающее кулисы жизни и работы офицеров тайных служб. Когда в 2006 году были ликвидированы ... 9 10 9
    Торрент: Зарегистрирован [2015-11-13 13:00] · скачан: 145 раз
    Статус: T временная
    Размер: 1.65 GB
    Как cкачать? Как скачать Спецслужбы через торрент | UTorrent

    28-11-2019 20:33  

    Отключить всю рекламу на сайте

      Дорогой пользователь! Огромная просьба, поблагодарите релизера, оцените раздачу и оставьте свои комментарий, если Вы скачали Спецслужбы через торрент бесплатно! Внесите свою лепту в развитие PiratBit!
      Комментировать посты могут только пользователи прошедшие не сложную регистрацию
      Показать сообщения:    

      Спецслужбы через торрент
      Скачать бесплатно Спецслужбы
      Спецслужбы скачать торрент
      Спецслужбы смотреть онлайн
      Cкачать фильм Спецслужбы бесплатно
      Спецслужбы скачать торрент в хорошем качестве
      Спецслужбы смотреть онлайн бесплатно в хорошем качестве


      Вы не можете начинать темы
      Вы не можете отвечать на сообщения
      Вы не можете редактировать свои сообщения
      Вы не можете удалять свои сообщения
      Вы не можете голосовать в опросах
      Вы не можете прикреплять файлы к сообщениям
      Вы можете скачивать файлы