1 сезон

1 сезон

iTunes

1

КиноПоиск HD

Кинопоиск HD

iTunes

13

1 сезон

RePack

30

Новинка

ВАЖНО

ИГРА 18+

pack

RePack

MK11
pack

Легкие деньги

RePack

jed

RePack

fifa19

RePack

RDR2

RePack

NEED FOR SPEED™ PAYBACK

4 сезон

9 сезон

Бесстыжие 9 сезон

Все сериалы

все сериалы на PB.wtf

RePack

FAR CRY 5
  
Magnet ссылка

Непримиримые противоречия / Irreconcilable Differences (Чарльз Шайер / Charles Shyer) [1984, США, драма, мелодрама, комедия, BDRip 720p от AVP Studio] AVO (А.Алексеев) + Original (Eng) piratbit.pw

Непримиримые противоречия через торрент piratbit.pw

Размер: 4.37 GB | Добавлен: 5 лет 5 мес. назад | Торрент скачан:17 раз
Скачать  

06-11-2015 06:41 Непримиримые противоречия Скачать торрент  


[font=Century Gothic]Раздача является материалом, специально подготовленным и переведенным для new-team.org
Непримиримые противоречия
Irreconcilable Differences

Страна: США
Производство: Hemdale Films, Lantana, Warner Bros. Pictures

Жанр: драма, мелодрама, комедия
Год выпуска: 1984
Продолжительность: 01:53:48

Перевод: Авторский (одноголосый) Антон Алексеев
Cубтитры: нет
Оригинальная аудиодорожка: Английский

Режиссер: Чарльз Шайер / Charles Shyer

В ролях:
Райан О’Нил, Шелли Лонг, Дрю Бэрримор, Сэм Уонамейкер, Аллен Гарфилд, Шэрон Стоун, Ким Марринер, Венди Гордон, Кен Гэйл, Дебора Коуди...

Описание:
Супруги Альберт и Люси собираются развестись и начинают раздел имущества. Это приводит в возмущение их десятилетнюю дочь Кейси, которая вскоре подает на них в суд с целью лишить своих родителей родительских прав...

Источник: BDRemux 1080p
Качество: BDRip 720p
Формат: MKV

Видео: 1280x722 (16:9), 23.976 fps, H264 ~ 4598 kbps avg, 0.208 bit/pixel
Аудио: 48 kHz, Dolby Digital AC3, 5.1 ch, 448 kbps, русский
Аудио: 48 kHz, Dolby Digital AC3, 5.1 ch, 448 kbps, английский
Оригинальная навигация по главам: есть
Дополнительно: На оригинальную дорожку наложен чистый голос перевода Антона Алексеева.

Раздача от:
Общее
Полное имя : Neprimirimye.protivorechiya.1984.BDRip720p_[New-team]_by_AVP_Studio.mkv
Формат : Matroska
Версия формата : Version 4 / Version 2
Размер файла : 4,37 Гбайт
Продолжительность : 1 ч. 53 м.
Общий поток : 5492 Кбит/сек
Название фильма : Neprimirimye.protivorechiya.1984.BDRip720p_[New-team]_by_AVP_Studio
Дата кодирования : UTC 2015-11-05 07:49:49
Программа кодирования : mkvmerge v8.4.0 ('A better way to fly') 64bit
Библиотека кодирования : libebml v1.3.1 + libmatroska v1.4.2
DURATION : 01:53:47.936000000
NUMBER_OF_FRAMES : 213373
NUMBER_OF_BYTES : 382364416
_STATISTICS_WRITING_APP : mkvmerge v8.4.0 ('A better way to fly') 64bit
_STATISTICS_WRITING_DATE_UTC : 2015-11-05 07:49:49
_STATISTICS_TAGS : BPS DURATION NUMBER_OF_FRAMES NUMBER_OF_BYTES

Видео
Идентификатор : 1
Формат : AVC
Формат/Информация : Advanced Video Codec
Профиль формата : High@L4.1
Параметр CABAC формата : Да
Параметр ReFrames формата : 8 кадров
Идентификатор кодека : V_MPEG4/ISO/AVC
Продолжительность : 1 ч. 53 м.
Битрейт : 4598 Кбит/сек
Ширина : 1280 пикселей
Высота : 722 пикселя
Соотношение сторон : 16:9
Режим частоты кадров : Постоянный
Частота кадров : 23,976 кадра/сек
Цветовое пространство : YUV
Субдискретизация насыщенности : 4:2:0
Битовая глубина : 8 бит
Тип развёртки : Прогрессивная
Бит/(Пиксели*Кадры) : 0.208
Размер потока : 3,57 Гбайт (82%)
Заголовок : Источник BDRemux
Библиотека кодирования : x264 core 148 r2597 e86f3a1
Настройки программы : cabac=1 / ref=8 / deblock=1:-3:-3 / analyse=0x3:0x133 / me=umh / subme=10 / psy=1 / psy_rd=1.00:0.00 / mixed_ref=1 / me_range=32 / chroma_me=1 / trellis=2 / 8x8dct=1 / cqm=0 / deadzone=21,11 / fast_pskip=1 / chroma_qp_offset=-2 / threads=6 / lookahead_threads=1 / sliced_threads=0 / nr=0 / decimate=0 / interlaced=0 / bluray_compat=0 / constrained_intra=0 / bframes=8 / b_pyramid=2 / b_adapt=2 / b_bias=0 / direct=3 / weightb=1 / open_gop=0 / weightp=2 / keyint=250 / keyint_min=25 / scenecut=40 / intra_refresh=0 / rc=2pass / mbtree=0 / bitrate=4598 / ratetol=1.0 / qcomp=0.60 / qpmin=0 / qpmax=69 / qpstep=4 / cplxblur=20.0 / qblur=0.5 / ip_ratio=1.40 / pb_ratio=1.30 / aq=1:1.00
Язык : English
Default : Да
Forced : Нет

Аудио #1
Идентификатор : 2
Формат : AC-3
Формат/Информация : Audio Coding 3
Расширение режима : CM (complete main)
Параметр Endianness формата : Big
Идентификатор кодека : A_AC3
Продолжительность : 1 ч. 53 м.
Вид битрейта : Постоянный
Битрейт : 448 Кбит/сек
Каналы : 1 канал
Расположение каналов : Front: C
Частота : 48,0 КГц
Метод сжатия : С потерями
Размер потока : 365 Мбайт (8%)
Заголовок : Dolby Digital 5,1 448 kbps Авторский (одноголосый) Антон Алексеев для new-team.org
Язык : Russian
Default : Да
Forced : Нет

Аудио #2
Идентификатор : 3
Формат : AC-3
Формат/Информация : Audio Coding 3
Расширение режима : CM (complete main)
Параметр Endianness формата : Big
Идентификатор кодека : A_AC3
Продолжительность : 1 ч. 53 м.
Вид битрейта : Постоянный
Битрейт : 448 Кбит/сек
Каналы : 1 канал
Расположение каналов : Front: C
Частота : 48,0 КГц
Метод сжатия : С потерями
Размер потока : 365 Мбайт (8%)
Заголовок : Dolby Digital 5,1 448 kbps
Язык : English
Default : Нет
Forced : Нет

Меню
00:00:00.000 : en:00:00:00.000
00:23:50.888 : en:00:23:50.888
00:46:50.975 : en:00:46:50.975
00:55:28.742 : en:00:55:28.742
01:07:49.691 : en:01:07:49.691
01:23:49.274 : en:01:23:49.274
01:38:43.960 : en:01:38:43.960
01:46:31.927 : en:01:46:31.927
piratbit.pw



Скачать Непримиримые противоречия через торрент http://new-team.org/images/exclusive/Exclusive01.png Скачать фильм Непримиримые противоречия через торрент бесплантно в хорошем качестве Описание:Супруги Альберт и Люси собираются развестись и начинают раздел имущества. Это приводит в возмущение их десятилетнюю дочь Кейси, ... 5 10 1
Info! Серебряная раздача, засчитывается только 50% скачанного.
Торрент: Зарегистрирован [2015-11-06 06:41] · скачан: 17 раз
Статус: √ проверено
Размер: 4.37 GB
Как cкачать? Как скачать Непримиримые противоречия через торрент | UTorrent

% Раздел Тема Автор DL S | L
Фильмы (Blu-ray, BD-Remux, HDDVD) [ 21.59 GB ] Непримиримые противоречия / Irreconcilable Differences [1984 BDRemux 1080p от keeper.52) AVO + Original + Sub keeper.52 Скачать
1 | 0
Фильмы с авторской озвучкой [ 9.16 GB ] Непримиримые противоречия / Irreconcilable Differences [1984 BDRip 1080p от AVP Studio] AVO + Original + Sab AVP Studio Скачать
1 | 0
Фильмы с авторской озвучкой [ 1.46 GB ] Непримиримые противоречия / Irreconcilable Differences [1984 BDRip-AVC) AVO + Sub keeper.52 Скачать
1 | 0
Фильмы с авторской озвучкой [ 2.17 GB ] Непримиримые противоречия / Irreconcilable Differences [1984 BDRip-AVC) AVO + Original + Sub keeper.52 Скачать
1 | 0
Фильмы с авторской озвучкой [ 1.46 GB ] Непримиримые противоречия / Irreconcilable Differences [1984 BDRip от keeper.52) AVO keeper.52 Скачать
1 | 0
Фильмы с авторской озвучкой [ 745 MB ] Непримиримые противоречия / Irreconcilable Differences [1984 BDRip от AVP Studio] AVO AVP Studio Скачать
1 | 0

28-11-2019 20:33  

Отключить всю рекламу на сайте

    Дорогой пользователь! Огромная просьба, поблагодарите релизера, оцените раздачу и оставьте свои комментарий, если Вы скачали Непримиримые противоречия через торрент бесплатно! Внесите свою лепту в развитие PiratBit!
    Комментировать посты могут только пользователи прошедшие не сложную регистрацию
    Показать сообщения:    

    Непримиримые противоречия через торрент
    Скачать бесплатно Непримиримые противоречия
    Непримиримые противоречия скачать торрент
    Непримиримые противоречия смотреть онлайн
    Cкачать фильм Непримиримые противоречия бесплатно
    Непримиримые противоречия скачать торрент в хорошем качестве
    Непримиримые противоречия смотреть онлайн бесплатно в хорошем качестве


    Вы не можете начинать темы
    Вы не можете отвечать на сообщения
    Вы не можете редактировать свои сообщения
    Вы не можете удалять свои сообщения
    Вы не можете голосовать в опросах
    Вы не можете прикреплять файлы к сообщениям
    Вы можете скачивать файлы