1 сезон

1 сезон

iTunes

1

КиноПоиск HD

Кинопоиск HD

iTunes

13

1 сезон

RePack

30

Ultimate

ВАЖНО

ИГРА 18+

pack

RePack

MK11
pack

Легкие деньги

RePack

jed

RePack

fifa19

RePack

RDR2

RePack

NEED FOR SPEED™ PAYBACK

4 сезон

9 сезон

Бесстыжие 9 сезон

Все сериалы

все сериалы на PB.wtf

RePack

FAR CRY 5
  
Magnet ссылка

Непримиримые противоречия / Irreconcilable Differences (Чарльз Шайер / Charles Shyer) [1984, США, драма, мелодрама, комедия, BDRip от AVP Studio] AVO (А.Алексеев) piratbit.pw

Непримиримые противоречия через торрент piratbit.pw

Размер: 745 MB | Добавлен: 5 лет 5 мес. назад | Торрент скачан:18 раз
Скачать  

05-11-2015 12:01 Непримиримые противоречия Скачать торрент  


Раздача является материалом, специально подготовленным и переведенным для new-team.org
Непримиримые противоречия
Irreconcilable Differences

Год выпуска: 1984
Страна: США
Производство: Hemdale Films, Lantana, Warner Bros. Pictures

Жанр: драма, мелодрама, комедия
Продолжительность: 01:53:48

Перевод: Авторский (одноголосый) Антон Алексеев
Cубтитры: нет
Оригинальная аудиодорожка: нет

Режиссер: Чарльз Шайер / Charles Shyer

В ролях:
Райан О’Нил, Шелли Лонг, Дрю Бэрримор, Сэм Уонамейкер, Аллен Гарфилд, Шэрон Стоун, Ким Марринер, Венди Гордон, Кен Гэйл, Дебора Коуди...

Описание:
Супруги Альберт и Люси собираются развестись и начинают раздел имущества. Это приводит в возмущение их десятилетнюю дочь Кейси, которая вскоре подает на них в суд с целью лишить своих родителей родительских прав...

Источник: BDRemux 1080p
Качество: BDRip
Формат: AVI

Видео: 624x352 (16:9), 23.976 fps, XviD ~778 kbps avg, 0.148 bit/pixel
Аудио: 48 kHz, MP3, 2 ch, 128 kbps

Дополнительно: На оригинальную дорожку наложен чистый голос перевода Антона Алексеева.

Раздача от:
Общее
Полное имя : Neprimirimye.protivorechiya.1984.BDRip-745_[New-team]_by_AVP_Studio.avi
Формат : AVI
Формат/Информация : Audio Video Interleave
Размер файла : 745 Мбайт
Продолжительность : 1 ч. 53 м.
Общий поток : 915 Кбит/сек
Программа кодирования : VirtualDubMod 1.5.10.3 | www.virtualdub-fr.org || (build 2550/release)
Библиотека кодирования : VirtualDubMod build 2550/release

Видео
Идентификатор : 0
Формат : MPEG-4 Visual
Профиль формата : Advanced Simple@L5
Параметр BVOP формата : 1
Параметр QPel формата : Нет
Параметр GMC формата : Без точки перехода
Параметр матрицы формата : Выборочная
Идентификатор кодека : XVID
Идентификатор кодека/Подсказка : XviD
Продолжительность : 1 ч. 53 м.
Битрейт : 778 Кбит/сек
Ширина : 624 пикселя
Высота : 352 пикселя
Соотношение сторон : 16:9
Частота кадров : 23,976 кадра/сек
Цветовое пространство : YUV
Субдискретизация насыщенности : 4:2:0
Битовая глубина : 8 бит
Тип развёртки : Прогрессивная
Метод сжатия : С потерями
Бит/(Пиксели*Кадры) : 0.148
Размер потока : 633 Мбайт (85%)
Библиотека кодирования : XviD 73

Аудио
Идентификатор : 1
Формат : MPEG Audio
Версия формата : Version 1
Профиль формата : Layer 3
Идентификатор кодека : 55
Идентификатор кодека/Подсказка : MP3
Продолжительность : 1 ч. 53 м.
Вид битрейта : Постоянный
Битрейт : 128 Кбит/сек
Каналы : 1 канал
Частота : 48,0 КГц
Метод сжатия : С потерями
Размер потока : 104 Мбайт (14%)
Выравнивание : Соединение по промежуткам
Продолжительность промежутка : 42 мс. (1,00 видеокадр)
Время предзагрузки промежутка : 504 мс.
Библиотека кодирования : LAME3.99r
Настройки программы : -m m -V 4 -q 2 -lowpass 20.5 -b 128
piratbit.pw



Скачать Непримиримые противоречия через торрент http://new-team.org/images/exclusive/Exclusive01.png Скачать фильм Непримиримые противоречия через торрент бесплантно в хорошем качестве Описание:Супруги Альберт и Люси собираются развестись и начинают раздел имущества. Это приводит в возмущение их десятилетнюю дочь Кейси, ... 10 10 2
Торрент: Зарегистрирован [2015-11-05 12:01] · скачан: 18 раз
Статус: √ проверено
Размер: 745 MB
Как cкачать? Как скачать Непримиримые противоречия через торрент | UTorrent

% Раздел Тема Автор DL S | L
Фильмы (Blu-ray, BD-Remux, HDDVD) [ 21.59 GB ] Непримиримые противоречия / Irreconcilable Differences [1984 BDRemux 1080p от keeper.52) AVO + Original + Sub keeper.52 Скачать
1 | 0
Фильмы с авторской озвучкой [ 9.16 GB ] Непримиримые противоречия / Irreconcilable Differences [1984 BDRip 1080p от AVP Studio] AVO + Original + Sab AVP Studio Скачать
1 | 0
Фильмы с авторской озвучкой [ 4.37 GB ] Непримиримые противоречия / Irreconcilable Differences [1984 BDRip 720p от AVP Studio] AVO + Original AVP Studio Скачать
1 | 0
Фильмы с авторской озвучкой [ 1.46 GB ] Непримиримые противоречия / Irreconcilable Differences [1984 BDRip-AVC) AVO + Sub keeper.52 Скачать
1 | 0
Фильмы с авторской озвучкой [ 2.17 GB ] Непримиримые противоречия / Irreconcilable Differences [1984 BDRip-AVC) AVO + Original + Sub keeper.52 Скачать
1 | 0
Фильмы с авторской озвучкой [ 1.46 GB ] Непримиримые противоречия / Irreconcilable Differences [1984 BDRip от keeper.52) AVO keeper.52 Скачать
1 | 0


Последний раз редактировалось: AVP Studio (2015-11-05 12:40), всего редактировалось 1 раз

28-11-2019 20:33  

Отключить всю рекламу на сайте

    Дорогой пользователь! Огромная просьба, поблагодарите релизера, оцените раздачу и оставьте свои комментарий, если Вы скачали Непримиримые противоречия через торрент бесплатно! Внесите свою лепту в развитие PiratBit!
    Комментировать посты могут только пользователи прошедшие не сложную регистрацию
    Показать сообщения:    

    Непримиримые противоречия через торрент
    Скачать бесплатно Непримиримые противоречия
    Непримиримые противоречия скачать торрент
    Непримиримые противоречия смотреть онлайн
    Cкачать фильм Непримиримые противоречия бесплатно
    Непримиримые противоречия скачать торрент в хорошем качестве
    Непримиримые противоречия смотреть онлайн бесплатно в хорошем качестве


    Вы не можете начинать темы
    Вы не можете отвечать на сообщения
    Вы не можете редактировать свои сообщения
    Вы не можете удалять свои сообщения
    Вы не можете голосовать в опросах
    Вы не можете прикреплять файлы к сообщениям
    Вы можете скачивать файлы