1 сезон

1 сезон

iTunes

1

КиноПоиск HD

Кинопоиск HD

iTunes

13

1 сезон

RePack

30

Новинка

ВАЖНО

ИГРА 18+

pack

RePack

MK11
pack

Легкие деньги

RePack

jed

RePack

fifa19

RePack

RDR2

RePack

NEED FOR SPEED™ PAYBACK

4 сезон

9 сезон

Бесстыжие 9 сезон

Все сериалы

все сериалы на PB.wtf

RePack

FAR CRY 5
  
Magnet ссылка

Бойня / Slaughterhouse (Рик Росслер) [1987 г., ужасы, комедия, BDRip, Авторский (одноголосый,закадровый) А.Дольский] piratbit.pw

Бойня через торрент piratbit.pw

Размер: 1.37 GB | Добавлен: 5 лет 5 мес. назад | Торрент скачан:0 раз
Скачать  

03-11-2015 08:18 Бойня Скачать торрент  

Бойня / Slaughterhouse




Год выпуска: 1987
Страна: США
Жанр: ужасы, комедия
Продолжительность: 01:25 мин.
Перевод: Авторский (одноголосый,закадровый) А.Дольский
Субтитры: отсутствуют

Режиссер: Рик Росслер
Продюссер: Рон Матонак,Эд Дрис, Джерри Энкой
Сценарий: Рик Росслер

Премьера в мире: 28 августа 1987

IMDB 5.30 (882)





В ролях: Джо Б. Бартон, Дон Баррет, Шерри Ли, Билл Бринсфилд, Джейсон Колье, Дэйв Фогель, Джефф Гросси, Хэнк Гам, Линда Харрис, Джейн Хиггинсон




Описание: Старую заброшенную и не работающую скотобойню пытаются выкупить деловые люди, однако владелец Лестер Бэйкон никого не хочет слушать и продавать скотобойню не собирается. Даже общество шерифа не склоняет Лестера к продаже своего имущества. В результате всех этих хождений Лестер разозлился и натравил на людей своего психически больного сына, который не может разговаривать, живёт со свиньями и, к тому же, передвигается на корточках и всячески пытается имитировать поведение свиней, в том числе хрюкать. В это самое время в действие вступает компания людей, захотевших снять фильм о вторжении пришельцев. Естественно для воплощения их замысла им необходимо мрачное окружение, коим и становится заброшенная скотобойня. Они пробираются на территорию скотобойни, а там их ждёт хрюкающий психопат-убийца.




Качество: BDRip
Формат: AVI
Видео кодек: XviD
Аудио кодек: AC3
Видео: XviD, 720x400 (16:9), 23.976 fps, 2 095 Kbps (0.303 bit/pixel)
Аудио#1: AC-3, 48.0 KHz, 2 ch, 192 Kbps, CBR
скриншот   скриншот   скриншот  

Общее
Полное имя : D:\download\Бойня.avi
Формат : AVI
Формат/Информация : Audio Video Interleave
Размер файла : 1,37 Гбайт
Продолжительность : 1 ч. 25 м.
Общий поток : 2294 Кбит/сек

Видео
Идентификатор : 0
Формат : MPEG-4 Visual
Профиль формата : Advanced Simple@L5
Параметр BVOP формата : 1
Параметр QPel формата : Нет
Параметр GMC формата : Без точки перехода
Параметр матрицы формата : Выборочная
Идентификатор кодека : XVID
Идентификатор кодека/Подсказка : XviD
Продолжительность : 1 ч. 25 м.
Битрейт : 2095 Кбит/сек
Ширина : 720 пикселей
Высота : 400 пикселей
Соотношение сторон : 16:9
Частота кадров : 23,976 кадра/сек
Цветовое пространство : YUV
Субдискретизация насыщенности : 4:2:0
Битовая глубина : 8 бит
Тип развёртки : Прогрессивная
Метод сжатия : С потерями
Бит/(Пиксели*Кадры) : 0.303
Размер потока : 1,25 Гбайт (91%)
Библиотека кодирования : XviD 73

Аудио
Идентификатор : 1
Формат : AC-3
Формат/Информация : Audio Coding 3
Расширение режима : CM (complete main)
Параметр Endianness формата : Big
Идентификатор кодека : 2000
Продолжительность : 1 ч. 25 м.
Вид битрейта : Постоянный
Битрейт : 192 Кбит/сек
Каналы : 2 канала
Расположение каналов : Front: L R
Частота : 48,0 КГц
Битовая глубина : 16 бит
Метод сжатия : С потерями
Размер потока : 117 Мбайт (8%)
Выравнивание : Соединение по промежуткам
Продолжительность промежутка : 64 мс. (1,54 видеокадра)
Время предзагрузки промежутка : 192 мс.
Заголовок : 1

piratbit.pw



Скачать Бойня через торрент https://pic.kartinco.top/images/11/t7yxn.jpg Скачать фильм Бойня через торрент бесплантно в хорошем качестве Описание: Старую заброшенную и не работающую скотобойню пытаются выкупить деловые люди, однако владелец Лестер Бэйкон никого не хочет ... 10 10 1
Info! Золотая раздача, скачанное не засчитывается.
Торрент: Зарегистрирован [2015-11-03 08:18] · скачан: 0 раз
Статус: √ проверено
Размер: 1.37 GB
Как cкачать? Как скачать Бойня через торрент | UTorrent

28-11-2019 20:33  

Отключить всю рекламу на сайте

    Дорогой пользователь! Огромная просьба, поблагодарите релизера, оцените раздачу и оставьте свои комментарий, если Вы скачали Бойня через торрент бесплатно! Внесите свою лепту в развитие PiratBit!
    Комментировать посты могут только пользователи прошедшие не сложную регистрацию
    Показать сообщения:    

    Бойня через торрент
    Скачать бесплатно Бойня
    Бойня скачать торрент
    Бойня смотреть онлайн
    Cкачать фильм Бойня бесплатно
    Бойня скачать торрент в хорошем качестве
    Бойня смотреть онлайн бесплатно в хорошем качестве


    Вы не можете начинать темы
    Вы не можете отвечать на сообщения
    Вы не можете редактировать свои сообщения
    Вы не можете удалять свои сообщения
    Вы не можете голосовать в опросах
    Вы не можете прикреплять файлы к сообщениям
    Вы можете скачивать файлы