Ссылка на приватное зеркало нашего сайта всего за 1$. Внимание количество ограничено!!!

2 сезон

iTunes

iTunes

1

iTunes

iTunes

iTunes

WEBRip

iTunes

30
pack

Вам бонус

ВАЖНО

!!Акция!!

Alien_RageХит недели

RePack

Horizon Zero Dawn

ИГРА 18+

pack

RePack

jed

!!Акция!!

Alien_Rage

RePack

fifa19

RePack

Assassins Creed: Odyssey

RePack

NEED FOR SPEED™ PAYBACK

4 сезон

9 сезон

Бесстыжие 9 сезон

Все сериалы

все сериалы на PB.wtf

RePack

FAR CRY 5
  

Последний вагон. Весна (Антон Калинкин) [2015, триллер, WEB-DL 1080p, [Русский] piratbit.pw

Последний вагон. Весна через торрент piratbit.pw

Размер: 3.61 GB | Добавлен: 4 года 10 мес. назад | Торрент скачан:219 раз
Скачать  

01-11-2015 17:21 Последний вагон. Весна Скачать торрент  


Последний вагон. Весна


ИНФОРМАЦИЯ:
Год выпуска:2015
Страна: Россия
Жанр: триллер
Продолжительность: 01:45:35
Перевод: Не требуется [Русский]
Режиссер: Антон Калинкин

В Ролях:


Илья Любимов, Мария Андреева, Анна Чурина, Борис Хвошнянский, Тимофей Трибунцев, Петар Зекавица, Сергей Греков, Алексей Ингелевич, Сергей Комаров, Екатерина Маликова, Иван Шмаков

Описание:
Главный герой Виктор - молодой тренер по боксу, у которого все великолепно: хорошая работа, красивая девушка рядом, веселые друзья. Однако жизнь приготовила ему серьезные испытания - в одну секунду все меняется и он становится главным подозреваемым в трех убийствах. Но судьба дает ему шанс...


ТЕХ.ДАННЫЕ:
Качество: WEB-DL 1080p
Формат: MKV
Видео: AVC, 1920x806 (2.40:1), 4415 kbps, 24 fps, 0,119 bpp
Аудио: русский / AC3 / 5.1 / 48 kHz / 384 kbps / 16 bit ||
Навигация по главам: есть


General
Unique ID : 181596833340002864340955737960492383826 (0x889E47255781A5DDA6021497D0513E52)
Complete name : D:\Торенты\Кино\PoClednyj.Vag0H.BeCH4.2015.O.WEB-DL.1080p.mkv
Format : Matroska
Format version : Version 4 / Version 2
File size : 3.61 GiB
Duration : 1h 45mn
Overall bit rate : 4 897 Kbps
Encoded date : UTC 2015-11-01 15:59:04
Writing application : mkvmerge v6.5.0 ('Isn't she lovely') built on Oct 20 2013 12:50:05
Writing library : libebml v1.3.0 + libmatroska v1.4.1

Video
ID : 1
Format : AVC
Format/Info : Advanced Video Codec
Format profile : High@L4.0
Format settings, CABAC : Yes
Format settings, ReFrames : 5 frames
Codec ID : V_MPEG4/ISO/AVC
Duration : 1h 45mn
Bit rate : 4 415 Kbps
Width : 1 920 pixels
Height : 806 pixels
Display aspect ratio : 2.40:1
Frame rate : 24.000 fps
Color space : YUV
Chroma subsampling : 4:2:0
Bit depth : 8 bits
Scan type : Progressive
Bits/(Pixel*Frame) : 0.119
Stream size : 3.26 GiB (90%)
Language : English
Default : Yes
Forced : No
Color primaries : BT.709-5, BT.1361, IEC 61966-2-4, SMPTE RP177
Transfer characteristics : BT.709-5, BT.1361
Matrix coefficients : BT.709-5, BT.1361, IEC 61966-2-4 709, SMPTE RP177

Audio
ID : 2
Format : AC-3
Format/Info : Audio Coding 3
Mode extension : CM (complete main)
Codec ID : A_AC3
Duration : 1h 45mn
Bit rate mode : Constant
Bit rate : 384 Kbps
Channel(s) : 6 channels
Channel positions : Front: L C R, Side: L R, LFE
Sampling rate : 48.0 KHz
Bit depth : 16 bits
Compression mode : Lossy
Stream size : 290 MiB (8%)
Language : Russian
Default : Yes
Forced : No

Menu
00:00:00.000 : en:Глава 1
00:06:16.000 : en:Глава 2
00:17:16.000 : en:Глава 3
00:24:42.000 : en:Глава 4
00:33:49.000 : en:Глава 5
00:42:42.000 : en:Глава 6
00:50:41.000 : en:Глава 7
00:57:50.000 : en:Глава 8
01:06:38.000 : en:Глава 9
01:15:25.000 : en:Глава 10
01:25:16.000 : en:Глава 11
01:31:53.000 : en:Глава 12
01:41:28.000 : en:Глава 13
Скриншоты:


© Оформление by Ворон
piratbit.pw



Скачать Последний вагон. Весна через торрент http://pic.kartinco.top/images/6/ordi9.jpg Скачать фильм Последний вагон. Весна через торрент бесплантно в хорошем качестве Описание: Главный герой Виктор - молодой тренер по боксу, у которого все великолепно: хорошая работа, красивая девушка рядом, веселые ... 9.4 10 14
Info! Золотая раздача, скачанное не засчитывается.
Торрент: Зарегистрирован [2015-11-01 17:21] · скачан: 219 раз
Статус: √ проверено
Размер: 3.61 GB
Как cкачать? Как скачать Последний вагон. Весна через торрент | qTorrent

% Раздел Тема Автор DL S | L
Наши новые фильмы 2015 [ 1.45 GB ] Последний вагон. Весна [2015 WEB-DLRip [Русский / ] Ворон Скачать
1 | 0

28-11-2019 20:33  

Отключить всю рекламу на сайте

01-11-2015 20:53 Последний вагон. Весна Скачать торрент  

На редкость чертовски хороший русский фильм...piratbit.pw



03-11-2015 07:23 Последний вагон. Весна Скачать торрент  

Не ведитесь на высокий рейтинг кинопоиск уже давно не тот. Фильм абсолютно банален скучен и не интересен. Eдинственный вопрос который меня посетил после просмотра это- зачем я досмотрел эту хрень до конца?piratbit.pw



    Дорогой пользователь! Огромная просьба, поблагодарите релизера, оцените раздачу и оставьте свои комментарий, если Вы скачали Последний вагон. Весна через торрент бесплатно! Внесите свою лепту в развитие PiratBit!
    Комментировать посты могут только пользователи прошедшие не сложную регистрацию
    Показать сообщения:    

    Последний вагон. Весна через торрент
    Скачать бесплатно Последний вагон. Весна
    Последний вагон. Весна скачать торрент
    Последний вагон. Весна смотреть онлайн
    Cкачать фильм Последний вагон. Весна бесплатно
    Последний вагон. Весна скачать торрент в хорошем качестве
    Последний вагон. Весна смотреть онлайн бесплатно в хорошем качестве


    Вы не можете начинать темы
    Вы не можете отвечать на сообщения
    Вы не можете редактировать свои сообщения
    Вы не можете удалять свои сообщения
    Вы не можете голосовать в опросах
    Вы не можете прикреплять файлы к сообщениям
    Вы можете скачивать файлы