1 сезон

1 сезон

iTunes

1

КиноПоиск HD

Кинопоиск HD

iTunes

13

1 сезон

RePack

30

Новинка

ВАЖНО

ИГРА 18+

pack

RePack

MK11
pack

Легкие деньги

RePack

jed

RePack

fifa19

RePack

RDR2

RePack

NEED FOR SPEED™ PAYBACK

4 сезон

9 сезон

Бесстыжие 9 сезон

Все сериалы

все сериалы на PB.wtf

RePack

FAR CRY 5
  
Magnet ссылка

Агенты А.Н.К.Л. / The Man from U.N.C.L.E. (Гай Ричи) [2015, боевик, комедия, приключения, WEB-DL 1080p, Авторский (одноголосый)(Матвеев (Doctor Joker) piratbit.pw

Агенты А.Н.К.Л. через торрент piratbit.pw

Размер: 3.94 GB | Добавлен: 5 лет 5 мес. назад | Торрент скачан:39 раз
Скачать  

31-10-2015 18:58 Агенты А.Н.К.Л. Скачать торрент  


Агенты А.Н.К.Л. / The Man from U.N.C.L.E.
««Герои высшего класса»»

ИНФОРМАЦИЯ:
Год выпуска:2015
Страна: США, Великобритания
Жанр: боевик, комедия, приключения
Продолжительность: 01:56:26
Перевод: Авторский (одноголосый)
Режиссер: Гай Ричи

В Ролях:


Генри Кавилл (Solo), Арми Хаммер (Illya), Алисия Викандер (Gaby), Элизабет Дебики (Victoria), Хью Грант (Waverly), Лука Кальвани (Alexander), Сильвестр Грот (Uncle Rudi), Джаред Харрис (Sanders), Кристиан Беркель (Udo), Миша Кузнецов (Oleg), Гай Уильямс (Captain Smith), Марианна Ди Мартино (Desk Clerk)

Описание:
Наполеон Соло - агент ЦРУ, на счету которого огромное количество успешно проведенных операций. Он считается одним из лучших секретных агентов во всем мире, и с ним может сравниться только один человек - самый молодой и перспективный агент КГБ, Илья Курякин. Их противостояние переросло в настоящую войну, в которой никто не собирается уступать. Однако обстоятельства складываются так, что непримиримые враги вынуждены стать напарниками. Это происходит после того как спецслужбы двух стран обнаруживают международную преступную организацию, которой удалось создать ядерную бомбу...

  • Мировая премьера:2 августа 2015

    ТЕХ.ДАННЫЕ:
    Качество: WEB-DL 1080p
    Формат: MKV
    Видео: AVC, 1912x792 (2.40:1), 4363 kbps, 23,976 fps, 0,120 bpp
    Аудио: AC3 / 5.1 / 48 kHz / 384 kbps / 16 bit
    Навигация по главам: есть


    General
    Unique ID : 177274020593849383745338162600970273717 (0x855DBC05B9AE6048828DBF2B978BC3B5)
    Complete name : D:\Торенты\AgeHtY.AHKL.2015.A1.WEB-DL.1080p.mkv
    Format : Matroska
    Format version : Version 4 / Version 2
    File size : 3.94 GiB
    Duration : 1h 56mn
    Overall bit rate : 4 844 Kbps
    Encoded date : UTC 2015-10-31 16:09:31
    Writing application : mkvmerge v8.2.0 ('World of Adventure') 32bit
    Writing library : libebml v1.3.1 + libmatroska v1.4.2
    DURATION : 01:56:26.848000000
    NUMBER_OF_FRAMES : 218339
    NUMBER_OF_BYTES : 335368704
    _STATISTICS_WRITING_APP : mkvmerge v8.2.0 ('World of Adventure') 32bit
    _STATISTICS_WRITING_DATE_UTC : 2015-10-31 16:09:31
    _STATISTICS_TAGS : BPS DURATION NUMBER_OF_FRAMES NUMBER_OF_BYTES

    Video
    ID : 1
    Format : AVC
    Format/Info : Advanced Video Codec
    Format profile : High@L4.0
    Format settings, CABAC : Yes
    Format settings, ReFrames : 5 frames
    Codec ID : V_MPEG4/ISO/AVC
    Duration : 1h 56mn
    Bit rate : 4 363 Kbps
    Width : 1 912 pixels
    Height : 792 pixels
    Display aspect ratio : 2.40:1
    Frame rate : 23.976 fps
    Color space : YUV
    Chroma subsampling : 4:2:0
    Bit depth : 8 bits
    Scan type : Progressive
    Bits/(Pixel*Frame) : 0.120
    Stream size : 3.55 GiB (90%)
    Language : English
    Default : Yes
    Forced : No
    Color primaries : BT.709-5, BT.1361, IEC 61966-2-4, SMPTE RP177
    Transfer characteristics : BT.709-5, BT.1361
    Matrix coefficients : BT.709-5, BT.1361, IEC 61966-2-4 709, SMPTE RP177

    Audio
    ID : 2
    Format : AC-3
    Format/Info : Audio Coding 3
    Mode extension : CM (complete main)
    Codec ID : A_AC3
    Duration : 1h 56mn
    Bit rate mode : Constant
    Bit rate : 384 Kbps
    Channel(s) : 6 channels
    Channel positions : Front: L C R, Side: L R, LFE
    Sampling rate : 48.0 KHz
    Bit depth : 16 bits
    Compression mode : Lossy
    Stream size : 320 MiB (8%)
    Default : Yes
    Forced : Yes

    Menu
    00:00:00.000 : en:1
    00:15:18.000 : en:2
    00:23:10.000 : en:3
    00:32:08.000 : en:4
    00:40:34.000 : en:5
    00:49:06.000 : en:6
    00:59:22.000 : en:7
    01:08:51.000 : en:8
    01:20:27.000 : en:9
    01:29:46.000 : en:10
    01:43:20.000 : en:11
    01:49:22.000 : en:12
    Скриншоты:


    © Оформление by Ворон
    piratbit.pw



  • Скачать Агенты А.Н.К.Л. через торрент https://pic.kartinco.top/images/6/ordi9.jpg Скачать фильм Агенты А.Н.К.Л. через торрент бесплантно в хорошем качестве Описание: Наполеон Соло - агент ЦРУ, на счету которого огромное количество успешно проведенных операций. Он считается одним из лучших ... 7 10 3
    Info! Золотая раздача, скачанное не засчитывается.
    Торрент: Зарегистрирован [2015-10-31 18:58] · скачан: 39 раз
    Статус: √ проверено
    Размер: 3.94 GB
    Как cкачать? Как скачать Агенты А.Н.К.Л. через торрент | UTorrent

    % Раздел Тема Автор DL S | L
    Ultra HD (UHD: 2K, 4K, 8K) — видео сверхвысокой чёткости [ 21.28 GB ] Агенты А.Н.К.Л. / The Man from U.N.C.L.E. [2015 UHD WEBRip 2160p] [HDR] 4xAVO+DUB [] bober100 Скачать
    3 | 0
    Фильмы [HD 720p, 1080p] (Хороший звук DUB, MVO) [ 6.96 GB ] Агенты А.Н.К.Л. / The Man from U.N.C.L.E. [2015 BDRip 1080p HEVC ] 2xAVO+DUB [] bober100 Скачать
    1 | 0
    Фильмы с авторской озвучкой [ 1.45 GB ] Агенты А.Н.К.Л. / The Man from U.N.C.L.E. [2015 BDRip] [AVO] killermax2013 Скачать
    1 | 0
    Фильмы (WEB-DL 720p, 1080p) [ 4.25 GB ] Агенты А.Н.К.Л. / The Man from U.N.C.L.E. [2015 WEB-DL 1080p / ] Ворон Скачать
    1 | 0
    Фильмы с авторской озвучкой [ 2.15 GB ] Агенты А.Н.К.Л. / The Man from U.N.C.L.E. [2015 HDRip Авторский одноголосый "Д.Есарев"] coc900 Скачать
    1 | 0
    Фильмы (DVD фильмы) [ 5.57 GB ] Агенты А.Н.К.Л. / The Man from U.N.C.L.E. [2015 DVD9] R5 voovaz Скачать
    1 | 0
    Фильмы (DVD фильмы) [ 6.88 GB ] Агенты А.Н.К.Л. / The Man from U.N.C.L.E. [2015 DVD9 / Custom] DUB] Ворон Скачать
    1 | 0

    28-11-2019 20:33  

    Отключить всю рекламу на сайте

      Дорогой пользователь! Огромная просьба, поблагодарите релизера, оцените раздачу и оставьте свои комментарий, если Вы скачали Агенты А.Н.К.Л. через торрент бесплатно! Внесите свою лепту в развитие PiratBit!
      Комментировать посты могут только пользователи прошедшие не сложную регистрацию
      Показать сообщения:    

      Агенты А.Н.К.Л. через торрент
      Скачать бесплатно Агенты А.Н.К.Л.
      Агенты А.Н.К.Л. скачать торрент
      Агенты А.Н.К.Л. смотреть онлайн
      Cкачать фильм Агенты А.Н.К.Л. бесплатно
      Агенты А.Н.К.Л. скачать торрент в хорошем качестве
      Агенты А.Н.К.Л. смотреть онлайн бесплатно в хорошем качестве


      Вы не можете начинать темы
      Вы не можете отвечать на сообщения
      Вы не можете редактировать свои сообщения
      Вы не можете удалять свои сообщения
      Вы не можете голосовать в опросах
      Вы не можете прикреплять файлы к сообщениям
      Вы можете скачивать файлы