MEGA SALE -50% FORZA HORIZON 4 ULTIMATE+ВСЕ DLC+ОНЛАЙН всего за 599р. 299 руб. (супер цена). Внимание количество ограничено!!!

iTunes

1+1

iTunes

мы

iTunes

1

iTunes

Чернобыль

1 сезон

Ральф против интернета

Лицензия

ПШазам

Лицензия

Игра престолов

Лицензия

30
pack

ВАЖНО

!!Акция!!

Alien_RageХит недели

RePack

Resident Evil 21

ИГРА 18+

pack

RePack

Metro:Exodus

!!Акция!!

Alien_Rage

RePack

fifa19

RePack

Assassins Creed: Odyssey

RePack

NEED FOR SPEED™ PAYBACK

3 сезон

9 сезон

Бесстыжие 9 сезон

Все сериалы

все сериалы на PB.wtf

RePack

FAR CRY 5
Ребята, катастрофически не хватает 7730р. для оплаты серверов за ИЮЛЬ (всвязи с блокировками трафик упал в 3 раза), 1-2р., выручайте.
  

Лиза-лиса Liza / the Fox-Fairy (Карой Уй Месарош) [2015 г., фэнтези, мелодрама, комедия, DVDScreener, Любительский (одноголосый)] piratbit.pw

Лиза-лиса Liza через торрент piratbit.pw

Размер: 1.37 GB | Добавлен: 3 года 9 мес. назад | Торрент скачан:164 раза
Скачать  

29-10-2015 05:42 Лиза-лиса Liza Скачать торрент  

Лиза-лиса / Liza the Fox-Fairy
Год выпуска: 2015
Страна: Венгрия
Жанр: фэнтези, мелодрама, комедия
Продолжительность: 1 ч. 33 м.
Перевод: Любительский (одноголосый)
Субтитры: Присутствуют вшитые английские субтитры

Режиссер: Карой Уй Месарош
Продюссер: Иштван Майор, Чанад Дарваш
Сценарий: Балинт Хегедюш, Карой Уй Месарош

Премьера в мире: 19 февраля 2015

IMDB 8.10 (2120)


В ролях: Моника Бальшаи, Сабольч Беде Фазекаш, Дэвид Сакурай, Зольтан Шмид, Антал Черна, Пирошка Мольнар, Габор Ревицки, Марианн Кочиш, Аги Губик, Лехель Ковач
Описание: Лиза — милая работящая девушка, почти все свое время отдает уходу за парализованной старухой-астматичкой, а в свободные минуты читает японские романы и грезит о любви. Единственный друг Лизы — призрак покойной японской поп-звезды Томми Тани, парень очень верный, но и очень ревнивый. Делить внимание Лизы с кем-то другим — не по Томми. Его первой жертвой становится старая Марта — и это только начало...
Качество: DVDScreener
Формат: AVI
Видео кодек: XviD
Аудио кодек: MP3
Видео: XviD,25 fps , 704x288, 1889 kb/s
Аудио#1: MP3, 192 kb/s (2 ch), 48,0 КГц
скриншот   скриншот   скриншот  

Общее
Полное имя : D:\download\Лиза-лиса.avi
Формат : AVI
Формат/Информация : Audio Video Interleave
Размер файла : 1,37 Гбайт
Продолжительность : 1 ч. 33 м.
Общий поток : 2090 Кбит/сек
Программа кодирования : VirtualDubMod 1.5.10.3 | www.virtualdub-fr.org || (build 2550/release)
Библиотека кодирования : VirtualDubMod build 2550/release

Видео
Идентификатор : 0
Формат : MPEG-4 Visual
Профиль формата : Advanced Simple@L5
Параметр BVOP формата : 2
Параметр QPel формата : Нет
Параметр GMC формата : Без точки перехода
Параметр матрицы формата : Default (MPEG)
Идентификатор кодека : XVID
Идентификатор кодека/Подсказка : XviD
Продолжительность : 1 ч. 33 м.
Битрейт : 1889 Кбит/сек
Ширина : 704 пикселя
Высота : 288 пикселей
Соотношение сторон : 2,40:1
Частота кадров : 25,000 кадров/сек
Цветовое пространство : YUV
Субдискретизация насыщенности : 4:2:0
Битовая глубина : 8 бит
Тип развёртки : Прогрессивная
Метод сжатия : С потерями
Бит/(Пиксели*Кадры) : 0.373
Размер потока : 1,24 Гбайт (90%)
Библиотека кодирования : XviD 73

Аудио
Идентификатор : 1
Формат : MPEG Audio
Версия формата : Version 1
Профиль формата : Layer 3
Режим : Joint stereo
Идентификатор кодека : 55
Идентификатор кодека/Подсказка : MP3
Продолжительность : 1 ч. 33 м.
Вид битрейта : Постоянный
Битрейт : 192 Кбит/сек
Каналы : 2 канала
Частота : 48,0 КГц
Метод сжатия : С потерями
Размер потока : 129 Мбайт (9%)
Выравнивание : Соединение по промежуткам
Продолжительность промежутка : 40 мс. (1,00 видеокадр)
Время предзагрузки промежутка : 504 мс.

piratbit.pw



Скачать Лиза-лиса Liza через торрент http://pic.kartinco.top/images/11/r381j.jpg Скачать фильм Лиза-лиса Liza через торрент бесплантно в хорошем качестве Описание: Лиза — милая работящая девушка, почти все свое время отдает уходу за парализованной старухой-астматичкой, а в свободные минуты ... 8.8 10 8
Торрент: Зарегистрирован [2015-10-29 05:42] · скачан: 164 раз
Статус: T временная
Размер: 1.37 GB
Как cкачать? Как скачать Лиза-лиса Liza через торрент | qTorrent



Последний раз редактировалось: schultz (2015-10-29 06:18), всего редактировалось 1 раз


>> Регистрируемся здесь <<






Отзывы и комментарии о схеме читаем и пишем здесь: ---> Отзывы и комментарии о схеме

Новые благодарочки в телеграм довольных пользователей:
скриншот   скриншот   скриншот   скриншот   скриншот

29-10-2015 07:10 Лиза-лиса Liza Скачать торрент  

спасибо, надо глянуть. качество бы получше piratbit.pw



    Дорогой пользователь! Огромная просьба, поблагодарите релизера, оцените раздачу и оставьте свои комментарий, если Вы скачали Лиза-лиса Liza через торрент бесплатно! Внесите свою лепту в развитие PiratBit!
    Комментировать посты могут только пользователи прошедшие не сложную регистрацию
    Показать сообщения:    

    Лиза-лиса Liza через торрент
    Скачать бесплатно Лиза-лиса Liza
    Лиза-лиса Liza скачать торрент
    Лиза-лиса Liza смотреть онлайн
    Cкачать фильм Лиза-лиса Liza бесплатно
    Лиза-лиса Liza скачать торрент в хорошем качестве
    Лиза-лиса Liza смотреть онлайн бесплатно в хорошем качестве


    Вы не можете начинать темы
    Вы не можете отвечать на сообщения
    Вы не можете редактировать свои сообщения
    Вы не можете удалять свои сообщения
    Вы не можете голосовать в опросах
    Вы не можете прикреплять файлы к сообщениям
    Вы можете скачивать файлы