1 сезон

1 сезон

iTunes

1

КиноПоиск HD

Кинопоиск HD

iTunes

13

1 сезон

RePack

30

Новинка

ВАЖНО

ИГРА 18+

pack

RePack

MK11
pack

Легкие деньги

RePack

jed

RePack

fifa19

RePack

RDR2

RePack

NEED FOR SPEED™ PAYBACK

4 сезон

9 сезон

Бесстыжие 9 сезон

Все сериалы

все сериалы на PB.wtf

RePack

FAR CRY 5
  
Magnet ссылка

Песнь слона / Elephant Song (Шарль Бинаме) [2014, драма, триллер, WEB-DL 720p, Авторский (одноголосый) [М. Чадов] piratbit.pw

Песнь слона через торрент piratbit.pw

Размер: 3.37 GB | Добавлен: 5 лет 5 мес. назад | Торрент скачан:89 раз
Скачать  

28-10-2015 13:51 Песнь слона Скачать торрент  


Песнь слона / Elephant Song


ИНФОРМАЦИЯ:
Год выпуска:2014
Страна: Канада
Жанр: драма, триллер
Продолжительность: 01:39:49
Перевод: Авторский (одноголосый) [М. Чадов]
Субтитры: Русские
Режиссер: Шарль Бинаме

В Ролях:


Брюс Гринвуд (Dr. Toby Green), Ксавье Долан (Michael Aleen), Кэтрин Кинер (Nurse Susan Peterson), Кэрри-Энн Мосс (Olivia), Джианна Корбисьеро (Florence Da Costa), Ларри Дэй (Sergent Taylor), Марк Донкер (Jakobus Aleen), Колм Фиор (Lawrence), Мелоди Годин-Кормье (Amy), Мэтт Холлэнд (Bruce), Элисон Лодер (Nurse), Ги Надон (Dr. Craig Jones)

Описание:
Действие развивается в середине шестидесятых годов прошлого столетия. Врач-психиатр Тоби Грин приходит в кабинет доктора Лоуренса, который таинственным образом исчез накануне Рождества. Последним пациентом Лоуренса был Майкл Алин, и как раз с ним Грин намерен пообщаться. Но молодой человек настроен поиграть с новым собеседником: пусть доктор не читает его дело, а он через некоторое время объяснит, куда делся пропавший врач...

  • Мировая премьера:10 сентября 2014

    ТЕХ.ДАННЫЕ:
    Качество: WEB-DL 720p
    Формат: MKV
    Видео: AVC, 1280x542 (2.35:1), 3846 kbps, 23,976 fps, 0,231 bpp
    Аудио №1: русский / AC3 / 5.1 / 48 kHz / 448 kbps / 16 bit ||
    Аудио №2: английский / AC3 / 5.1 / 48 kHz / 448 kbps / 16 bit


    General
    Unique ID : 222107819419413196355920317294881263143 (0xA71868F7BDE776A08528A6D8E937CE27)
    Complete name : D:\Торенты\Elephant Song.2014.A1.WEB-DL.mkv
    Format : Matroska
    Format version : Version 4 / Version 2
    File size : 3.37 GiB
    Duration : 1h 39mn
    Overall bit rate : 4 839 Kbps
    Movie name : Elephant Song (2014) K_I
    Encoded date : UTC 2015-10-28 13:35:08
    Writing application : mkvmerge v7.3.0 ('Nouages') 32bit built on Oct 22 2014 18:44:01
    Writing library : libebml v1.3.0 + libmatroska v1.4.1
    _STATISTICS_WRITING_APP : mkvmerge v7.3.0 ('Nouages') 32bit built on Oct 22 2014 18:44:01
    _STATISTICS_WRITING_DATE_UTC : 2015-10-28 13:35:08
    _STATISTICS_TAGS : BPS DURATION NUMBER_OF_FRAMES NUMBER_OF_BYTES
    DURATION : 01:34:18.869000000
    NUMBER_OF_FRAMES : 1183
    NUMBER_OF_BYTES : 64767

    Video
    ID : 1
    Format : AVC
    Format/Info : Advanced Video Codec
    Format profile : Main@L3.1
    Format settings, CABAC : No
    Format settings, ReFrames : 2 frames
    Codec ID : V_MPEG4/ISO/AVC
    Duration : 1h 39mn
    Bit rate : 3 847 Kbps
    Width : 1 280 pixels
    Height : 542 pixels
    Display aspect ratio : 2.35:1
    Frame rate : 23.976 fps
    Color space : YUV
    Chroma subsampling : 4:2:0
    Bit depth : 8 bits
    Scan type : Progressive
    Bits/(Pixel*Frame) : 0.231
    Stream size : 2.68 GiB (79%)
    Language : English
    Default : Yes
    Forced : No
    Color primaries : BT.709-5, BT.1361, IEC 61966-2-4, SMPTE RP177
    Transfer characteristics : BT.709-5, BT.1361
    Matrix coefficients : BT.709-5, BT.1361, IEC 61966-2-4 709, SMPTE RP177

    Audio #1
    ID : 2
    Format : AC-3
    Format/Info : Audio Coding 3
    Mode extension : CM (complete main)
    Codec ID : A_AC3
    Duration : 1h 39mn
    Bit rate mode : Constant
    Bit rate : 448 Kbps
    Channel(s) : 6 channels
    Channel positions : Front: L C R, Side: L R, LFE
    Sampling rate : 48.0 KHz
    Bit depth : 16 bits
    Compression mode : Lossy
    Stream size : 320 MiB (9%)
    Language : Russian
    Default : Yes
    Forced : No

    Audio #2
    ID : 3
    Format : AC-3
    Format/Info : Audio Coding 3
    Mode extension : CM (complete main)
    Codec ID : A_AC3
    Duration : 1h 39mn
    Bit rate mode : Constant
    Bit rate : 448 Kbps
    Channel(s) : 6 channels
    Channel positions : Front: L C R, Side: L R, LFE
    Sampling rate : 48.0 KHz
    Bit depth : 16 bits
    Compression mode : Lossy
    Stream size : 320 MiB (9%)
    Language : English
    Default : No
    Forced : No

    Text
    ID : 4
    Format : UTF-8
    Codec ID : S_TEXT/UTF8
    Codec ID/Info : UTF-8 Plain Text
    Default : No
    Forced : No
    Скриншоты:


    © Оформление by Ворон
    piratbit.pw



  • Скачать Песнь слона через торрент https://pic.kartinco.top/images/6/ordi9.jpg Скачать фильм Песнь слона через торрент бесплантно в хорошем качестве Описание: Действие развивается в середине шестидесятых годов прошлого столетия. Врач-психиатр Тоби Грин приходит в кабинет доктора ... 9.2 10 11
    Info! Золотая раздача, скачанное не засчитывается.
    Торрент: Зарегистрирован [2015-10-28 13:51] · скачан: 89 раз
    Статус: √ проверено
    Размер: 3.37 GB
    Как cкачать? Как скачать Песнь слона через торрент | UTorrent

    % Раздел Тема Автор DL S | L
    Фильмы с авторской озвучкой [ 2.04 GB ] Песнь слона / Elephant Song [2014 WEB-DLRip Авторский [М. Чадов] Ворон Скачать
    1 | 0

    28-11-2019 20:33  

    Отключить всю рекламу на сайте

    28-10-2015 18:24 Песнь слона Скачать торрент  

    за песнь слона ребят отпишитесь-времени только на хорошее кино-а судим то в основном если народ дискутирует-спорит как нибудь за фильмpiratbit.pw



    28-10-2015 18:49 Песнь слона Скачать торрент  

    sasha1966, Рейтинг и отзывы на кп отличные, сейчас буду смотретьpiratbit.pw



      Дорогой пользователь! Огромная просьба, поблагодарите релизера, оцените раздачу и оставьте свои комментарий, если Вы скачали Песнь слона через торрент бесплатно! Внесите свою лепту в развитие PiratBit!
      Комментировать посты могут только пользователи прошедшие не сложную регистрацию
      Показать сообщения:    

      Песнь слона через торрент
      Скачать бесплатно Песнь слона
      Песнь слона скачать торрент
      Песнь слона смотреть онлайн
      Cкачать фильм Песнь слона бесплатно
      Песнь слона скачать торрент в хорошем качестве
      Песнь слона смотреть онлайн бесплатно в хорошем качестве


      Вы не можете начинать темы
      Вы не можете отвечать на сообщения
      Вы не можете редактировать свои сообщения
      Вы не можете удалять свои сообщения
      Вы не можете голосовать в опросах
      Вы не можете прикреплять файлы к сообщениям
      Вы можете скачивать файлы