1 сезон

1 сезон

iTunes

1

КиноПоиск HD

Кинопоиск HD

iTunes

13

1 сезон

RePack

30

Новинка

ВАЖНО

ИГРА 18+

pack

RePack

MK11
pack

Легкие деньги

RePack

jed

RePack

fifa19

RePack

RDR2

RePack

NEED FOR SPEED™ PAYBACK

4 сезон

9 сезон

Бесстыжие 9 сезон

Все сериалы

все сериалы на PB.wtf

RePack

FAR CRY 5
  
Magnet ссылка

Песнь слона / Elephant Song (Шарль Бинаме) [2014, драма, триллер, WEB-DLRip, Авторский (одноголосый) [М. Чадов] piratbit.pw

Песнь слона через торрент piratbit.pw

Размер: 2.04 GB | Добавлен: 5 лет 5 мес. назад | Торрент скачан:52 раза
Скачать  

28-10-2015 13:44 Песнь слона Скачать торрент  


Песнь слона / Elephant Song


ИНФОРМАЦИЯ:
Год выпуска:2014
Страна: Канада
Жанр: драма, триллер
Продолжительность: 01:39:49
Перевод: Авторский (одноголосый) [М. Чадов]
Режиссер: Шарль Бинаме

В Ролях:


Брюс Гринвуд (Dr. Toby Green), Ксавье Долан (Michael Aleen), Кэтрин Кинер (Nurse Susan Peterson), Кэрри-Энн Мосс (Olivia), Джианна Корбисьеро (Florence Da Costa), Ларри Дэй (Sergent Taylor), Марк Донкер (Jakobus Aleen), Колм Фиор (Lawrence), Мелоди Годин-Кормье (Amy), Мэтт Холлэнд (Bruce), Элисон Лодер (Nurse), Ги Надон (Dr. Craig Jones)

Описание:
Действие развивается в середине шестидесятых годов прошлого столетия. Врач-психиатр Тоби Грин приходит в кабинет доктора Лоуренса, который таинственным образом исчез накануне Рождества. Последним пациентом Лоуренса был Майкл Алин, и как раз с ним Грин намерен пообщаться. Но молодой человек настроен поиграть с новым собеседником: пусть доктор не читает его дело, а он через некоторое время объяснит, куда делся пропавший врач...

  • Мировая премьера:10 сентября 2014

    ТЕХ.ДАННЫЕ:
    Качество: WEB-DLRip
    Формат: AVI
    Видео: XviD, 720x304 (2.35:1), 1637 kbps, 23,976 fps, 0,312 bpp
    Аудио: AC3 / 5.1 / 48 kHz / 448 kbps / 16 bit


    General
    Complete name : D:\Торенты\El3ph4nt.S0ng.2014.A1.WEBDLRip.avi
    Format : AVI
    Format/Info : Audio Video Interleave
    File size : 1.46 GiB
    Duration : 1h 39mn
    Overall bit rate : 2 095 Kbps
    Writing application : VirtualDubMod 1.5.10.3 | www.virtualdub-fr.org || (build 2550/release)
    Writing library : VirtualDubMod build 2550/release

    Video
    ID : 0
    Format : MPEG-4 Visual
    Format profile : Advanced Simple@L5
    Format settings, BVOP : 2
    Format settings, QPel : No
    Format settings, GMC : No warppoints
    Format settings, Matrix : Default (MPEG)
    Codec ID : XVID
    Codec ID/Hint : XviD
    Duration : 1h 39mn
    Bit rate : 1 638 Kbps
    Width : 720 pixels
    Height : 304 pixels
    Display aspect ratio : 2.35:1
    Frame rate : 23.976 fps
    Color space : YUV
    Chroma subsampling : 4:2:0
    Bit depth : 8 bits
    Scan type : Progressive
    Compression mode : Lossy
    Bits/(Pixel*Frame) : 0.312
    Stream size : 1.14 GiB (78%)
    Writing library : XviD 1.2.1 (UTC 2008-12-04)

    Audio
    ID : 1
    Format : AC-3
    Format/Info : Audio Coding 3
    Mode extension : CM (complete main)
    Codec ID : 2000
    Duration : 1h 39mn
    Bit rate mode : Constant
    Bit rate : 448 Kbps
    Channel(s) : 6 channels
    Channel positions : Front: L C R, Side: L R, LFE
    Sampling rate : 48.0 KHz
    Bit depth : 16 bits
    Compression mode : Lossy
    Stream size : 319 MiB (21%)
    Alignment : Split accross interleaves
    Interleave, duration : 42 ms (1.00 video frame)
    Interleave, preload duration : 500 ms
    Скриншоты:


    © Оформление by Ворон
    piratbit.pw



  • Скачать Песнь слона через торрент https://pic.kartinco.top/images/6/ordi9.jpg Скачать фильм Песнь слона через торрент бесплантно в хорошем качестве Описание: Действие развивается в середине шестидесятых годов прошлого столетия. Врач-психиатр Тоби Грин приходит в кабинет доктора ... 10 10 1
    Торрент: Зарегистрирован [2015-10-28 13:44] · скачан: 52 раз
    Статус: √ проверено
    Размер: 2.04 GB
    Как cкачать? Как скачать Песнь слона через торрент | UTorrent

    % Раздел Тема Автор DL S | L
    Фильмы с авторской озвучкой [ 3.37 GB ] Песнь слона / Elephant Song [2014 WEB-DL 720p Авторский [М. Чадов] Ворон Скачать
    1 | 0

    28-11-2019 20:33  

    Отключить всю рекламу на сайте

      Дорогой пользователь! Огромная просьба, поблагодарите релизера, оцените раздачу и оставьте свои комментарий, если Вы скачали Песнь слона через торрент бесплатно! Внесите свою лепту в развитие PiratBit!
      Комментировать посты могут только пользователи прошедшие не сложную регистрацию
      Показать сообщения:    

      Песнь слона через торрент
      Скачать бесплатно Песнь слона
      Песнь слона скачать торрент
      Песнь слона смотреть онлайн
      Cкачать фильм Песнь слона бесплатно
      Песнь слона скачать торрент в хорошем качестве
      Песнь слона смотреть онлайн бесплатно в хорошем качестве


      Вы не можете начинать темы
      Вы не можете отвечать на сообщения
      Вы не можете редактировать свои сообщения
      Вы не можете удалять свои сообщения
      Вы не можете голосовать в опросах
      Вы не можете прикреплять файлы к сообщениям
      Вы можете скачивать файлы