1 сезон

1 сезон

iTunes

1

КиноПоиск HD

Кинопоиск HD

iTunes

13

1 сезон

RePack

30

Ultimate

ВАЖНО

ИГРА 18+

pack

RePack

MK11
pack

Легкие деньги

RePack

jed

RePack

fifa19

RePack

RDR2

RePack

NEED FOR SPEED™ PAYBACK

4 сезон

9 сезон

Бесстыжие 9 сезон

Все сериалы

все сериалы на PB.wtf

RePack

FAR CRY 5
  
Magnet ссылка

Семейство Белье / La famille Belier (Эрик Лартиго / Eric Lartigau) [2014, Франция, Бельгия, драма, комедия, музыка, BDRip от AVP Studio] AVO (А.Алексеев) + Original (fre) piratbit.pw

Семейство Белье через торрент piratbit.pw

Размер: 2.19 GB | Добавлен: 5 лет 5 мес. назад | Торрент скачан:5 раз
Скачать  

27-10-2015 11:50 Семейство Белье Скачать торрент  


Раздача является материалом, специально подготовленным и переведенным для new-team.org

Семейство Белье
Gardiens de l'ordre

Страна: Франция, Бельгия
Производство: Canal+ [fr], Centre du Cinéma et de l'Audiovisuel de la Fédération Wallonie-Bruxelles, Ciné, D8, France 2 Cinéma, France Télévisions, Jerico, Le Tax Shelter du Gouvernement Fédéral de Belgique, M6, Mars Films, Nexus Factory, Quarante 12 Films, Sofica Manon 4, uFund, uMedia Family, Vendôme Production

Жанр: драма, комедия, музыка
Год выпуска: 2014
Продолжительность: 01:45:21

Перевод: Авторский (одноголосый) Антон Алексеев
Cубтитры: нет
Оригинальная аудиодорожка: французский

Режиссер: Эрик Лартиго / Eric Lartigau

В ролях:
Карин Вьяр, Франсуа Дамиенс, Эрик Элмоснино, Луан Эмера, Роксана Дюран, Ilian Bergala, Luca Gelberg, Мар Содуп, Стефан Войтович, Жером Киршер...

Описание:
В семействе Белье все глухие, кроме 16-летней Паулы. Она является незаменимым переводчиком для родителей в повседневной работе на их ферме и при продаже их домашних сыров на рынке. Однажды, вдохновленная своим преподавателем музыки, который открыл в ней вокальный талант, Паула решает начать подготовку к прослушиванию для вокального курса, проходящего на французском радио в Париже. Этот выбор означает, что она должна покинуть свою семью, чтобы сделать свои первые шаги во взрослую жизнь.

Источник: BDRemux 1080p La.Famille.Belier.2014.FRENCH.1080p.BluRay.AVC.DTS-HD.MA.5.1-WiHD
Качество видео: BDRip
Формат видео: AVI

Видео: 720x384 (1.85:1), 23.976 fps, XviD ~ 2056 kbps avg, 0.310 bit/pixel
Аудио: 48 kHz, Dolby Digital AC3, 5.1 ch, 448 kbps, русский
Аудио: 48 kHz, Dolby Digital AC3, 5.1 ch, 448 kbps, французский

Дополнительно: На оригинальную дорожку наложен чистый голос перевода Антона Алексеева. Фильм разбит на главы, как на оригинальном Bluray диске.

Раздача от:
Общее
Полное имя : Semeystvo.Bele.2014.BDRip_[New-team]_by_AVP_Studio.avi
Формат : AVI
Формат/Информация : Audio Video Interleave
Профиль формата : OpenDML
Размер файла : 2,19 Гбайт
Продолжительность : 1 ч. 45 м.
Общий поток : 2970 Кбит/сек
Программа кодирования : VirtualDubModRus 1.5.10.2 (build 2542/release)
Библиотека кодирования : VirtualDubMod build 2542/release

Видео
Идентификатор : 0
Формат : MPEG-4 Visual
Профиль формата : Advanced Simple@L5
Параметр BVOP формата : 1
Параметр QPel формата : Нет
Параметр GMC формата : Без точки перехода
Параметр матрицы формата : Выборочная
Идентификатор кодека : XVID
Идентификатор кодека/Подсказка : XviD
Продолжительность : 1 ч. 45 м.
Битрейт : 2056 Кбит/сек
Ширина : 720 пикселей
Высота : 384 пикселя
Соотношение сторон : 1,85:1
Частота кадров : 23,976 кадра/сек
Цветовое пространство : YUV
Субдискретизация насыщенности : 4:2:0
Битовая глубина : 8 бит
Тип развёртки : Прогрессивная
Метод сжатия : С потерями
Бит/(Пиксели*Кадры) : 0.310
Размер потока : 1,51 Гбайт (69%)
Библиотека кодирования : XviD 73

Аудио #1
Идентификатор : 1
Формат : AC-3
Формат/Информация : Audio Coding 3
Расширение режима : CM (complete main)
Параметр Endianness формата : Big
Идентификатор кодека : 2000
Продолжительность : 1 ч. 45 м.
Вид битрейта : Постоянный
Битрейт : 448 Кбит/сек
Каналы : 6 каналов
Расположение каналов : Front: L C R, Side: L R, LFE
Частота : 48,0 КГц
Метод сжатия : С потерями
Размер потока : 338 Мбайт (15%)
Выравнивание : Разделение по промежуткам
Продолжительность промежутка : 42 мс. (1,00 видеокадр)
Время предзагрузки промежутка : 500 мс.

Аудио #2
Идентификатор : 2
Формат : AC-3
Формат/Информация : Audio Coding 3
Расширение режима : CM (complete main)
Параметр Endianness формата : Big
Идентификатор кодека : 2000
Продолжительность : 1 ч. 45 м.
Вид битрейта : Постоянный
Битрейт : 448 Кбит/сек
Каналы : 6 каналов
Расположение каналов : Front: L C R, Side: L R, LFE
Частота : 48,0 КГц
Метод сжатия : С потерями
Размер потока : 338 Мбайт (15%)
Выравнивание : Разделение по промежуткам
Продолжительность промежутка : 42 мс. (1,00 видеокадр)
Время предзагрузки промежутка : 500 мс
piratbit.pw



Скачать Семейство Белье через торрент http://new-team.org/images/exclusive/Exclusive01.png Скачать фильм Семейство Белье через торрент бесплантно в хорошем качестве Описание:В семействе Белье все глухие, кроме 16-летней Паулы. Она является незаменимым переводчиком для родителей в повседневной работе на ... 10 10 2
Info! Золотая раздача, скачанное не засчитывается.
Торрент: Зарегистрирован [2015-10-27 11:50] · скачан: 5 раз
Статус: √ проверено
Размер: 2.19 GB
Как cкачать? Как скачать Семейство Белье через торрент | UTorrent

% Раздел Тема Автор DL S | L
Фильмы с авторской озвучкой [ 1.46 GB ] Семейство Белье / La famille Belier [2014 Бельгия музыка BDRip-AVC by keeper.52] AVO keeper.52 Скачать
1 | 0
Фильмы (Blu-ray, BD-Remux, HDDVD) [ 29.12 GB ] Семейство Белье / La famille Belier [2014 Бельгия музыка BDRemux 1080p] AVO + Original + Sub keeper.52 Скачать
1 | 0
Фильмы с авторской озвучкой [ 2.18 GB ] Семейство Белье / La famille Belier [2014 Бельгия музыка BDRip-AVC by keeper.52] AVO + Original keeper.52 Скачать
1 | 0
Фильмы с авторской озвучкой [ 9.58 GB ] Семейство Белье / La famille Belier [2014 Бельгия музыка BDRip 1080p от AVP Studio] AVO + Original AVP Studio Скачать
1 | 0
Фильмы с авторской озвучкой [ 747 MB ] Семейство Белье / La famille Belier [2014 Бельгия музыка BDRip от AVP Studio] AVO AVP Studio Скачать
1 | 0
Фильмы с авторской озвучкой [ 4.16 GB ] Семейство Белье / La famille Belier [2014 Бельгия музыка BDRip 720p от AVP Studio] AVO + Original AVP Studio Скачать
1 | 0
Фильмы с авторской озвучкой [ 1.46 GB ] Семейство Белье / La famille Belier [2014 Бельгия музыка BDRip by keeper.52] AVO keeper.52 Скачать
1 | 0

28-11-2019 20:33  

Отключить всю рекламу на сайте

    Дорогой пользователь! Огромная просьба, поблагодарите релизера, оцените раздачу и оставьте свои комментарий, если Вы скачали Семейство Белье через торрент бесплатно! Внесите свою лепту в развитие PiratBit!
    Комментировать посты могут только пользователи прошедшие не сложную регистрацию
    Показать сообщения:    

    Семейство Белье через торрент
    Скачать бесплатно Семейство Белье
    Семейство Белье скачать торрент
    Семейство Белье смотреть онлайн
    Cкачать фильм Семейство Белье бесплатно
    Семейство Белье скачать торрент в хорошем качестве
    Семейство Белье смотреть онлайн бесплатно в хорошем качестве


    Вы не можете начинать темы
    Вы не можете отвечать на сообщения
    Вы не можете редактировать свои сообщения
    Вы не можете удалять свои сообщения
    Вы не можете голосовать в опросах
    Вы не можете прикреплять файлы к сообщениям
    Вы можете скачивать файлы