Ссылка на приватное зеркало нашего сайта всего за 1$. Внимание количество ограничено!!!

2 сезон

iTunes

iTunes

1

iTunes

iTunes

iTunes

WEBRip

iTunes

30
pack

Новость дня

ВАЖНО

!!Акция!!

Alien_RageХит недели

RePack

Horizon Zero Dawn

ИГРА 18+

pack

RePack

jed

!!Акция!!

Alien_Rage

RePack

fifa19

RePack

Assassins Creed: Odyssey

RePack

NEED FOR SPEED™ PAYBACK

4 сезон

9 сезон

Бесстыжие 9 сезон

Все сериалы

все сериалы на PB.wtf

RePack

FAR CRY 5
  

Парень с нашего кладбища (Илья Чижиков, Антон Чижиков) [2015, комедия, триллер, WEB-DL 1080p, [Русский] piratbit.pw

Парень с нашего кладбища через торрент piratbit.pw

Размер: 3.36 GB | Добавлен: 4 года 10 мес. назад | Торрент скачан:2732 раза
Скачать  

25-10-2015 21:01 Парень с нашего кладбища Скачать торрент  


Парень с нашего кладбища


ИНФОРМАЦИЯ:
Год выпуска:2015
Страна: Россия
Жанр: комедия, триллер
Продолжительность: 01:27:22
Перевод: Не требуется [Русский]
Режиссер: Илья Чижиков, Антон Чижиков

В Ролях:


Александр Паль, Игорь Жижикин, Владимир Сычев, Александр Ильин, Кристина Казинская, Полина Шашуро, Алексей Онежен (Малыш), Евгений Волоцкий (мент)

Описание:
Двадцатипятилетний провинциальный парень Коля приезжает в Москву к своему дяде. Ему нужно как можно быстрее отдать долг, который висит на нем с прошлого места работы, он готов работать каждый день. Точнее, каждую ночь. Так как дядя устраивает племянника ночным сторожем на... кладбище. Новый сторож приступает к первому дежурству, но к тому, что происходит на кладбище, когда стемнеет, он оказывается не готов. А впереди еще не одна ночь, и Коле нужно сделать выбор: разобраться с таинственными гостями или сбежать.


ТЕХ.ДАННЫЕ:
Качество: WEB-DL 1080p
Формат: MKV
Видео: AVC, 1918x1080 (16:9), 5004 kbps, 24 fps, 0,101 bpp
Аудио: русский / AC3 / 5.1 / 48 kHz / 384 kbps / 16 bit ||
Навигация по главам: есть


General
Unique ID : 176738942660479929299855889968283505518 (0x84F6AEA4B81E38FFA35B09B779C7D36E)
Complete name : D:\Торенты\Kladbish4enskiy.storozh.2015.O.WEB-DL.1080p.mkv
Format : Matroska
Format version : Version 4 / Version 2
File size : 3.36 GiB
Duration : 1h 27mn
Overall bit rate : 5 498 Kbps
Encoded date : UTC 2015-10-25 19:56:50
Writing application : mkvmerge v8.3.0 ('Over the Horizon') 64bit
Writing library : libebml v1.3.1 + libmatroska v1.4.2
DURATION : 01:27:22.208000000
NUMBER_OF_FRAMES : 163819
NUMBER_OF_BYTES : 251625984
_STATISTICS_WRITING_APP : mkvmerge v8.3.0 ('Over the Horizon') 64bit
_STATISTICS_WRITING_DATE_UTC : 2015-10-25 19:56:50
_STATISTICS_TAGS : BPS DURATION NUMBER_OF_FRAMES NUMBER_OF_BYTES

Video
ID : 1
Format : AVC
Format/Info : Advanced Video Codec
Format profile : High@L4.0
Format settings, CABAC : Yes
Format settings, ReFrames : 4 frames
Codec ID : V_MPEG4/ISO/AVC
Duration : 1h 27mn
Bit rate : 5 004 Kbps
Width : 1 918 pixels
Height : 1 080 pixels
Display aspect ratio : 16:9
Frame rate : 24.000 fps
Color space : YUV
Chroma subsampling : 4:2:0
Bit depth : 8 bits
Scan type : Progressive
Bits/(Pixel*Frame) : 0.101
Stream size : 3.05 GiB (91%)
Language : English
Default : Yes
Forced : No
Color primaries : BT.709-5, BT.1361, IEC 61966-2-4, SMPTE RP177
Transfer characteristics : BT.709-5, BT.1361
Matrix coefficients : BT.709-5, BT.1361, IEC 61966-2-4 709, SMPTE RP177

Audio
ID : 2
Format : AC-3
Format/Info : Audio Coding 3
Mode extension : CM (complete main)
Codec ID : A_AC3
Duration : 1h 27mn
Bit rate mode : Constant
Bit rate : 384 Kbps
Channel(s) : 6 channels
Channel positions : Front: L C R, Side: L R, LFE
Sampling rate : 48.0 KHz
Bit depth : 16 bits
Compression mode : Lossy
Stream size : 240 MiB (7%)
Language : Russian
Default : Yes
Forced : No

Menu
00:00:00.000 : en:Глава 1
00:01:54.000 : en:Глава 2
00:08:16.000 : en:Глава 3
00:15:23.000 : en:Глава 4
00:24:18.000 : en:Глава 5
00:28:57.000 : en:Глава 6
00:35:21.000 : en:Глава 7
00:43:27.000 : en:Глава 8
00:47:16.000 : en:Глава 9
00:55:07.000 : en:Глава 10
01:05:00.000 : en:Глава 11
01:10:05.000 : en:Глава 12
01:16:55.000 : en:Глава 13
01:21:48.000 : en:Глава 14
Скриншоты:


© Оформление by Ворон
piratbit.pw



Скачать Парень с нашего кладбища через торрент http://pic.kartinco.top/images/6/ordi9.jpg Скачать фильм Парень с нашего кладбища через торрент бесплантно в хорошем качестве Описание: Двадцаятилетний провинциальный парень Коля приезжает в Москву к своему дяде. Ему нужно как можно быстрее отдать долг, который ... 9.3 10 73
Info! Золотая раздача, скачанное не засчитывается.
Торрент: Зарегистрирован [2015-10-25 21:01] · скачан: 2 732 раз
Статус: √ проверено
Размер: 3.36 GB
Как cкачать? Как скачать Парень с нашего кладбища через торрент | qTorrent

% Раздел Тема Автор DL S | L
Наши новые фильмы 2015 [ 1.37 GB ] Парень с нашего кладбища [2015 WEB-DLRip [Русский] Ворон Скачать
2 | 0
Наши фильмы (HD, WEB-DL 720p, 1080p) [ 2.72 GB ] Парень с нашего кладбища [2015 WEB-DL 720p / ] Ворон Скачать
1 | 0
Наши новые фильмы 2015 [ 702 MB ] Парень с нашего кладбища [2015 WEB-DLRip "'] coc900 Скачать
1 | 0

28-11-2019 20:33  

Отключить всю рекламу на сайте

26-10-2015 12:31 Парень с нашего кладбища Скачать торрент  

парни как фильм???piratbit.pw



26-10-2015 16:57 Парень с нашего кладбища Скачать торрент  

bec4 писал(а):

парни как фильм???

Сам не думал что будет норм, но фильм оказался действительно хорошим.piratbit.pw



26-10-2015 16:59 Парень с нашего кладбища Скачать торрент  

Нормальный фильм, с необычным сюжетом и нормальной игрой актёров или скорей всего актёра)))piratbit.pw



26-10-2015 18:32 Парень с нашего кладбища Скачать торрент  

Сойдет под пивко...piratbit.pw



26-10-2015 19:15 Парень с нашего кладбища Скачать торрент  

а по мне так зря время тратить не надо.piratbit.pw



26-10-2015 21:06 Парень с нашего кладбища Скачать торрент  

думаю глянуть стоит)piratbit.pw



27-10-2015 18:02 Парень с нашего кладбища Скачать торрент  

Нормальный фильм, можно смотреть... piratbit.pw



27-10-2015 20:56 Парень с нашего кладбища Скачать торрент  

Годный фильм что что а русские триллеры и комедию умеют делать тот же чернобыль а вот с ужасами полная фигняpiratbit.pw



28-10-2015 03:50 Парень с нашего кладбища Скачать торрент  

Все пишут ужасы ни о чем.дак фильм и не выставляет себя как ужасы,жанр другой.Фильм хорош,школоте и любителям второсортных боевиков не рекомендуется,а всем остальным фильм понравится.piratbit.pw



28-10-2015 11:41 Парень с нашего кладбища Скачать торрент  

Снят фильм неплохо и актеры хорошие, посмотрел с удовольствием =) Но, блин, сюжет вообще как то неудачно выбрали по сути фильм вообще ниочем. Ну вообще на один разок глянуть можно.
З.ы. От отечественного производителя не ожидал даже такого.piratbit.pw



30-10-2015 11:28 Парень с нашего кладбища Скачать торрент  

По мне дак херь какая тоpiratbit.pw



06-11-2015 11:03 Парень с нашего кладбища Скачать торрент  

Вот уверен что Дерьмо , а не фильм!piratbit.pw



10-11-2015 11:38 Парень с нашего кладбища Скачать торрент  

Ожидал комедию, оказалось не она! Сюжет вообще странный какой-то по моему, но досмотрел с женой. Лишь актерская игра, более менее заставила досмотреть до конца. 5/10piratbit.pw



    Дорогой пользователь! Огромная просьба, поблагодарите релизера, оцените раздачу и оставьте свои комментарий, если Вы скачали Парень с нашего кладбища через торрент бесплатно! Внесите свою лепту в развитие PiratBit!
    Комментировать посты могут только пользователи прошедшие не сложную регистрацию
    Показать сообщения:    

    Парень с нашего кладбища через торрент
    Скачать бесплатно Парень с нашего кладбища
    Парень с нашего кладбища скачать торрент
    Парень с нашего кладбища смотреть онлайн
    Cкачать фильм Парень с нашего кладбища бесплатно
    Парень с нашего кладбища скачать торрент в хорошем качестве
    Парень с нашего кладбища смотреть онлайн бесплатно в хорошем качестве


    Вы не можете начинать темы
    Вы не можете отвечать на сообщения
    Вы не можете редактировать свои сообщения
    Вы не можете удалять свои сообщения
    Вы не можете голосовать в опросах
    Вы не можете прикреплять файлы к сообщениям
    Вы можете скачивать файлы