Ссылка на приватное зеркало всего за 1$. Внимание количество ограничено!!!

iTunes

iTunes

iTunes

1

iTunes

iTunes

iTunes

iTunes

iTunes

30
pack

$ от Little Big

ВАЖНО

!!Акция!!

Alien_RageХит недели

RePack

Resident Evil 21

ИГРА 18+

pack

RePack

jed

!!Акция!!

Alien_Rage

RePack

fifa19

RePack

Assassins Creed: Odyssey

RePack

NEED FOR SPEED™ PAYBACK

4 сезон

9 сезон

Бесстыжие 9 сезон

Все сериалы

все сериалы на PB.wtf

RePack

FAR CRY 5
  

Всё и сразу (Роман Каримов) [2014 г., комедия, криминал, HDTVRip] piratbit.pw

Всё и сразу через торрент piratbit.pw

Размер: 1.46 GB | Добавлен: 4 года 8 мес. назад | Торрент скачан:626 раз
Скачать  

25-10-2015 16:18 Всё и сразу Скачать торрент  

Всё и сразу
Год выпуска: 2014
Страна: Россия / Инвада фильм,Кинокомпания «Lunapark»
Жанр: комедия, криминал
Продолжительность: 01:30:52
Перевод: Не требуется

Режиссер: Роман Каримов

IMDB 7.00 (372)


В ролях: Никита Ост, Антон Шурцов, Александр Паль, Юлия Хлынина, Артем Костюнёв, Андрей Муравьёв, Александр Шаляпин, Андрей Галактионов, Игорь Тарасевич, Ольга Возовая

Описание: Тима и Дэн — друзья-неудачники из провинциального городка. Учеба позади, работать не тянет, девушек нет. На пути к мечте (выбиться в люди) и в надежде получить всё и сразу (без особого напряга) парни берутся выполнить задание местного бандюка и отправляются на дело, прихватив с собой автослесаря Жору, такого же полного лузера.На кону внушительная сумма, главное — не облажаться и чётко инсценировать ограбление своего же, подставного наркокурьера. Но вот засада: роль курьера случайно достаётся честному дембелю Ване, который оказывается не в курсе схем и обещаний. И теперь в водовороте погонь, потасовок и перестрелок всем четверым нужно по-настоящему напрячься, чтобы грамотно разрулить ситуацию. И получить ВСЁ и СРАЗУ.

Качество: HDTVRip
Формат: AVI
Видео кодек: XviD
Аудио кодек: AC3
Видео: 720x384 (1.88:1), 25 fps, XviD build 50 ~1841 kbps avg, 0.27 bit/pixel
Аудио: 48 kHz, AC3 Dolby Digital, 3/2 (L,C,R,l,r) + LFE ch, ~448 kbps

Общее
Полное имя : F:\кино\Всё и сразу.2014.HDTVRip.avi
Формат : AVI
Формат/Информация : Audio Video Interleave
Размер файла : 1,46 Гбайт
Продолжительность : 1 ч. 30 м.
Общий поток : 2299 Кбит/сек
Программа кодирования : VirtualDubMod 1.5.10.3 | www.virtualdub-fr.org || (build 2550/release)
Библиотека кодирования : VirtualDubMod build 2550/release

Видео
Идентификатор : 0
Формат : MPEG-4 Visual
Профиль формата : Advanced Simple@L5
Параметр BVOP формата : 2
Параметр QPel формата : Нет
Параметр GMC формата : Без точки перехода
Параметр матрицы формата : Default (H.263)
Идентификатор кодека : XVID
Идентификатор кодека/Подсказка : XviD
Продолжительность : 1 ч. 30 м.
Битрейт : 1842 Кбит/сек
Ширина : 720 пикселей
Высота : 384 пикселя
Соотношение сторон : 1,85:1
Частота кадров : 25,000 кадров/сек
Цветовое пространство : YUV
Субдискретизация насыщенности : 4:2:0
Битовая глубина : 8 бит
Тип развёртки : Прогрессивная
Метод сжатия : С потерями
Бит/(Пиксели*Кадры) : 0.266
Размер потока : 1,17 Гбайт (80%)
Библиотека кодирования : XviD 1.2.1 (UTC 2008-12-04)

Аудио
Идентификатор : 1
Формат : AC-3
Формат/Информация : Audio Coding 3
Расширение режима : CM (complete main)
Параметр Endianness формата : Big
Идентификатор кодека : 2000
Продолжительность : 1 ч. 30 м.
Вид битрейта : Постоянный
Битрейт : 448 Кбит/сек
Каналы : 6 каналов
Расположение каналов : Front: L C R, Side: L R, LFE
Частота : 48,0 КГц
Метод сжатия : С потерями
Размер потока : 291 Мбайт (19%)
Выравнивание : Разделение по промежуткам
Продолжительность промежутка : 40 мс. (1,00 видеокадр)
Время предзагрузки промежутка : 500 мс.

piratbit.pw



Скачать Всё и сразу через торрент http://pic1.kartinco.top/images/10/ftfeo.jpg Скачать фильм Всё и сразу через торрент бесплантно в хорошем качестве Описание: Тима и Дэн — друзья-неудачники из провинциального городка. Учеба позади, работать не тянет, девушек нет. На пути к мечте ... 9.9 10 22
Торрент: Зарегистрирован [2015-10-25 16:18] · скачан: 626 раз
Статус: √ проверено
Размер: 1.46 GB
Как cкачать? Как скачать Всё и сразу через торрент | qTorrent

% Раздел Тема Автор DL S | L
Наши новые фильмы 2014 [ 748 MB ] Всё и сразу [2014 Россия WEB-DLRip-AVC] sokol_ok Скачать
2 | 0
Наши новые фильмы 2014 [ 1.46 GB ] Всё и сразу [2014 Россия WEB-DLRip] Ворон Скачать
1 | 0
Наши новые фильмы 2014 [ 1.46 GB ] Всё и сразу [2014 Россия WEB-DLRip-AVC] sokol_ok Скачать
2 | 0
Наши фильмы (HD, WEB-DL 720p, 1080p) [ 3.02 GB ] Всё и сразу [2013 Россия WEB-DL 720p] Ворон Скачать
1 | 0

28-11-2019 20:33  

Отключить всю рекламу на сайте

25-10-2015 16:24 Всё и сразу Скачать торрент  

хороший фильм смотрел егоpiratbit.pw



26-10-2015 15:24 Всё и сразу Скачать торрент  

Присоединюсь, мне тоже понравился, легко смотрится. piratbit.pw



    Дорогой пользователь! Огромная просьба, поблагодарите релизера, оцените раздачу и оставьте свои комментарий, если Вы скачали Всё и сразу через торрент бесплатно! Внесите свою лепту в развитие PiratBit!
    Комментировать посты могут только пользователи прошедшие не сложную регистрацию
    Показать сообщения:    

    Всё и сразу через торрент
    Скачать бесплатно Всё и сразу
    Всё и сразу скачать торрент
    Всё и сразу смотреть онлайн
    Cкачать фильм Всё и сразу бесплатно
    Всё и сразу скачать торрент в хорошем качестве
    Всё и сразу смотреть онлайн бесплатно в хорошем качестве


    Вы не можете начинать темы
    Вы не можете отвечать на сообщения
    Вы не можете редактировать свои сообщения
    Вы не можете удалять свои сообщения
    Вы не можете голосовать в опросах
    Вы не можете прикреплять файлы к сообщениям
    Вы можете скачивать файлы