1 сезон

1 сезон

iTunes

1

iTunes

Кинопоиск HD

iTunes

13

1 сезон

RePack

30

Deluxe

ВАЖНО

ИГРА 18+

pack

RePack

MK11
pack

Легкие деньги

RePack

jed

RePack

fifa19

RePack

RDR2

RePack

NEED FOR SPEED™ PAYBACK

4 сезон

9 сезон

Бесстыжие 9 сезон

Все сериалы

все сериалы на PB.wtf

RePack

FAR CRY 5
  
Magnet ссылка

Граница / Frontière(s) (Ксавье Жанс) [2007, ужасы, триллер, BDRip] Дубляж piratbit.pw

Граница через торрент piratbit.pw

Размер: 1.45 GB | Добавлен: 5 лет 6 мес. назад | Торрент скачан:249 раз
Скачать  

17-10-2015 20:28 Граница Скачать торрент  

Граница / Frontière(s)«Приготовьтесь к настоящему кошмару!»

  • Год выхода: 2007
  • Жанр: ужасы, триллер

  • Страна: Франция, Швейцария
  • Продолжительность: 01:48:09
  • Перевод: Дубляж
  • Режиссер: Ксавье Жанс
  • В ролях:

    Карина Теста (Yasmine), Самюэль Ле Бьян (Goetz), Эстель Лефебюр (Gilberte), Орельен Вик (Alex), Давид Саракино (Tom), Чемс Дамани (Farid), Мод Форже (Eva), Амели Доре (Klaudia), Розин Фавей (La mere), Адель Беншериф (Sami), Жоэль Лефрансуа (Hans), Патрик Лигарде (Karl)


  • Преступная банда после ряда дерзких ограблений скрывается от правосудия в близлежащих лесах. Скитаясь в поисках временно прибежища, они выходят к мотелю. Хозяева спасительного пристанища не отличаются гостеприимством. Но даже самые страшные фантазии не в состоянии сравниться с ожидающей несчастных реальностью. Совсем скоро неудавшиеся бандиты поймут, что стали пленниками каннибалов, которые уготовили своим постояльцам ужасную смерть...

  • Качество: BDRip
  • Формат: AVI
  • Видео кодек: XviD
  • Аудио кодек: AC3
  • Видео: XviD, 720x304 (2.35:1), 1460 kbps, 23,976 fps, 0,278 bpp
  • Аудио: русский / AC3 / 5.1 / 48 kHz / 448 kbps / 16 bit
  • Релиз от:

    Код:

    General
    Complete name                            : H:\Granica.2007.XviD.BDRip-Kinozal.TV.avi
    Format                                   : AVI
    Format/Info                              : Audio Video Interleave
    File size                                : 1.45 GiB
    Duration                                 : 1h 48mn
    Overall bit rate                         : 1 918 Kbps
    Movie name                               : Granica.2007.XviD.BDRip-Kinozal.TV
    Director                                 : Kinozal.TV
    Writing application                      : VirtualDubMod 1.5.10.2 (build 2540/release)
    Copyright                                : http://kinozal.tv
    Comment                                  : Rip by vvmon

    Video
    ID                                       : 0
    Format                                   : MPEG-4 Visual
    Format profile                           : Advanced Simple@L5
    Format settings, BVOP                    : 4
    Format settings, QPel                    : No
    Format settings, GMC                     : No warppoints
    Format settings, Matrix                  : Default (MPEG)
    Codec ID                                 : XVID
    Codec ID/Hint                            : XviD
    Duration                                 : 1h 48mn
    Bit rate                                 : 1 460 Kbps
    Width                                    : 720 pixels
    Height                                   : 304 pixels
    Display aspect ratio                     : 2.35:1
    Frame rate                               : 23.976 fps
    Color space                              : YUV
    Chroma subsampling                       : 4:2:0
    Bit depth                                : 8 bits
    Scan type                                : Progressive
    Compression mode                         : Lossy
    Bits/(Pixel*Frame)                       : 0.278
    Stream size                              : 1.10 GiB (76%)
    Writing library                          : XviD 1.2.1 (UTC 2008-12-04)

    Audio
    ID                                       : 1
    Format                                   : AC-3
    Format/Info                              : Audio Coding 3
    Mode extension                           : CM (complete main)
    Codec ID                                 : 2000
    Duration                                 : 1h 48mn
    Bit rate mode                            : Constant
    Bit rate                                 : 448 Kbps
    Channel(s)                               : 6 channels
    Channel positions                        : Front: L C R, Side: L R, LFE
    Sampling rate                            : 48.0 KHz
    Bit depth                                : 16 bits
    Compression mode                         : Lossy
    Stream size                              : 347 MiB (23%)
    Alignment                                : Split accross interleaves
    Interleave, duration                     : 42 ms (1.00 video frame)
    Interleave, preload duration             : 500 ms

    Скриншоты:


    © Оформление by -Lexx- piratbit.pw



  • Скачать Граница через торрент https://pic1.kartinco.top/images/61/stazu.jpg Скачать фильм Граница через торрент бесплантно в хорошем качестве qw.png Преступная банда после ряда дерзких ограблений скрывается от правосудия в близлежащих лесах. Скитаясь в поисках временно ... 9.9 10 10
    Торрент: Зарегистрирован [2015-10-17 20:28] · скачан: 249 раз
    Статус: √ проверено
    Размер: 1.45 GB
    Как cкачать? Как скачать Граница через торрент | UTorrent

    % Раздел Тема Автор DL S | L
    Фильмы (HD 720p, 1080p) (48-60 fps) [ 10.74 GB ] Граница / Frontière [2007 Швейцария BDRip 1080p / 60 FPS ] Tiberiumsun69 Скачать
    1 | 0
    Фильмы (HD 720p, 1080p) (48-60 fps) [ 5.47 GB ] Граница / Frontière [2007 Швейцария BDRip 720p / 60 FPS ] Tiberiumsun69 Скачать
    1 | 0
    Фильмы 2006-2008 [ 2.18 GB ] Граница / Frontière [2007 BDRip ] Den41K Скачать
    1 | 0

    28-11-2019 20:33  

    Отключить всю рекламу на сайте

      Дорогой пользователь! Огромная просьба, поблагодарите релизера, оцените раздачу и оставьте свои комментарий, если Вы скачали Граница через торрент бесплатно! Внесите свою лепту в развитие PiratBit!
      Комментировать посты могут только пользователи прошедшие не сложную регистрацию
      Показать сообщения:    

      Граница через торрент
      Скачать бесплатно Граница
      Граница скачать торрент
      Граница смотреть онлайн
      Cкачать фильм Граница бесплатно
      Граница скачать торрент в хорошем качестве
      Граница смотреть онлайн бесплатно в хорошем качестве


      Вы не можете начинать темы
      Вы не можете отвечать на сообщения
      Вы не можете редактировать свои сообщения
      Вы не можете удалять свои сообщения
      Вы не можете голосовать в опросах
      Вы не можете прикреплять файлы к сообщениям
      Вы можете скачивать файлы