Ссылка на приватное зеркало нашего сайта всего за 1$. Внимание количество ограничено!!!

2 сезон

iTunes

iTunes

1

iTunes

iTunes

iTunes

WEBRip

iTunes

30
pack

Вам бонус

ВАЖНО

!!Акция!!

Alien_RageХит недели

RePack

Horizon Zero Dawn

ИГРА 18+

pack

RePack

jed

!!Акция!!

Alien_Rage

RePack

fifa19

RePack

Assassins Creed: Odyssey

RePack

NEED FOR SPEED™ PAYBACK

4 сезон

9 сезон

Бесстыжие 9 сезон

Все сериалы

все сериалы на PB.wtf

RePack

FAR CRY 5
  

Орлеан (Андрей Прошкин) [2015, комедия, триллер, WEB-DL 1080p] [Pусский] piratbit.pw

Орлеан через торрент piratbit.pw

Размер: 3.81 GB | Добавлен: 4 года 11 мес. назад | Торрент скачан:586 раз
Скачать  

17-10-2015 19:37 Орлеан Скачать торрент  

Орлеан

  • Год выхода: 2015
  • Жанр: комедия, триллер

  • Страна: Россия
  • Продолжительность: 01:50:19
  • Перевод: Не требуется
  • Режиссер: Андрей Прошкин
  • В ролях:

    Елена Лядова (Лидка), Виктор Сухоруков (экзекутор), Виталий Хаев (Неволин), Олег Ягодин (Рудик), Тимофей Трибунцев (Боря Амаретто), Павел Табаков (Игорь), Евгений Сытый (полицейский 1), Александр Бавтриков (полицейский 2), Азамат Нигманов (сержант), Полина Шулика (девочка), Эллада Мешвелиани (секретарь экзекутора), Анна Рудь (Маркитантова)


  • На русский провинциальный город с необычным названием Орлеан надвигается буря. Пока что о ней не догадываются его жители: парикмахерша Лида спит с кем ни попадя; врач Рудик водит к себе девиц, пользуясь служебным положением; полицейский не гнушается убийством; а фокусник, кажется, и вправду перепиливает девушек на сцене.

  • Качество: WEB-DL 1080p
  • Формат: MKV
  • Видео кодек: AVC
  • Аудио кодек: AC3
  • Видео: AVC, 1920x804 (2.40:1), 4456 kbps, 24 fps, 0,120 bpp
  • Аудио: русский / AC3 / 5.1 / 48 kHz / 384 kbps / 16 bit
  • Навигация по главам: есть

    Код:

    General
    Unique ID                                : 224803968558350839862147220718813004774 (0xA91FAB6225C038B1B4ADCAA4C78543E6)
    Complete name                            : H:\0pLe4H.2015.O.WEB-DL.1080p.mkv
    Format                                   : Matroska
    Format version                           : Version 4 / Version 2
    File size                                : 3.81 GiB
    Duration                                 : 1h 50mn
    Overall bit rate                         : 4 939 Kbps
    Encoded date                             : UTC 2015-10-17 18:22:13
    Writing application                      : mkvmerge v8.3.0 ('Over the Horizon') 64bit
    Writing library                          : libebml v1.3.1 + libmatroska v1.4.2

    Video
    ID                                       : 1
    Format                                   : AVC
    Format/Info                              : Advanced Video Codec
    Format profile                           : High@L4.0
    Format settings, CABAC                   : Yes
    Format settings, ReFrames                : 5 frames
    Codec ID                                 : V_MPEG4/ISO/AVC
    Duration                                 : 1h 50mn
    Bit rate                                 : 4 456 Kbps
    Width                                    : 1 920 pixels
    Height                                   : 804 pixels
    Display aspect ratio                     : 2.40:1
    Frame rate                               : 24.000 fps
    Color space                              : YUV
    Chroma subsampling                       : 4:2:0
    Bit depth                                : 8 bits
    Scan type                                : Progressive
    Bits/(Pixel*Frame)                       : 0.120
    Stream size                              : 3.43 GiB (90%)
    Language                                 : English
    Default                                  : Yes
    Forced                                   : No
    Color primaries                          : BT.709-5, BT.1361, IEC 61966-2-4, SMPTE RP177
    Transfer characteristics                 : BT.709-5, BT.1361
    Matrix coefficients                      : BT.709-5, BT.1361, IEC 61966-2-4 709, SMPTE RP177

    Audio
    ID                                       : 2
    Format                                   : AC-3
    Format/Info                              : Audio Coding 3
    Mode extension                           : CM (complete main)
    Codec ID                                 : A_AC3
    Duration                                 : 1h 50mn
    Bit rate mode                            : Constant
    Bit rate                                 : 384 Kbps
    Channel(s)                               : 6 channels
    Channel positions                        : Front: L C R, Side: L R, LFE
    Sampling rate                            : 48.0 KHz
    Bit depth                                : 16 bits
    Compression mode                         : Lossy
    Stream size                              : 303 MiB (8%)
    Language                                 : Russian
    Default                                  : Yes
    Forced                                   : No

    Menu
    00:00:00.000                             : en:Глава 1
    00:06:38.000                             : en:Глава 2
    00:12:22.000                             : en:Глава 3
    00:18:39.000                             : en:Глава 4
    00:24:03.000                             : en:Глава 5
    00:29:15.000                             : en:Глава 6
    00:34:38.000                             : en:Глава 7
    00:39:45.000                             : en:Глава 8
    00:44:38.000                             : en:Глава 9
    00:50:52.000                             : en:Глава 10
    00:57:24.000                             : en:Глава 11
    01:02:38.000                             : en:Глава 12
    01:08:00.000                             : en:Глава 13
    01:14:18.000                             : en:Глава 14
    01:19:31.000                             : en:Глава 15
    01:24:22.000                             : en:Глава 16
    01:29:24.000                             : en:Глава 17
    01:35:16.000                             : en:Глава 18
    01:41:11.000                             : en:Глава 19

    Скриншоты:


    © Оформление by -Lexx- piratbit.pw



  • Скачать Орлеан через торрент http://pic.kartinco.top/images/6/stazu.jpg Скачать фильм Орлеан через торрент бесплантно в хорошем качестве qw.png На русский провинциальный город с необычным названием Орлеан надвигается буря. Пока что о ней не догадываются его жители: ... 9.1 10 31
    Info! Золотая раздача, скачанное не засчитывается.
    Торрент: Зарегистрирован [2015-10-17 19:37] · скачан: 586 раз
    Статус: √ проверено
    Размер: 3.81 GB
    Как cкачать? Как скачать Орлеан через торрент | qTorrent

    % Раздел Тема Автор DL S | L
    T Наши новые фильмы 2015 [ 2.16 GB ] Орлеан [2015 WEB-DLRip] coc900 Скачать
    1 | 0
    Наши новые фильмы 2015 [ 1.46 GB ] Орлеан [2015 WEB-DLRip] [Русский] -Lexx- Скачать
    1 | 0
    Фильмы 2011 [ 744 MB ] Мальчишник в Новом Орлеане / Mardi Gras: Spring Break [2011 DVDRip лицензия] 744mb SD Скачать
    1 | 0
    Фильмы 2011 [ 1.37 GB ] Мальчишник в Новом Орлеане / Mardi Gras: Spring Break [2011 DVDRip] shuller Скачать
    1 | 0
    Фильмы (DVD фильмы) [ 5.1 GB ] Мальчишник в Новом Орлеане / Mardi Gras: Spring Break [2011 DVD9] R5 «Columbia/Sony» voovaz Скачать
    1 | 0

    28-11-2019 20:33  

    Отключить всю рекламу на сайте

    17-10-2015 21:00 Орлеан Скачать торрент  

    Даже 7.4 оценка , ну нифига шедевр))piratbit.pw



    18-10-2015 02:04 Орлеан Скачать торрент  

    Ждал, спасибо.piratbit.pw
    K-Lexx- писал(а):

    Приятного просмотра. Отпишись потом, как фильм. Что-то рейтинг на КП, действительно, зашкаливает.



    18-10-2015 07:59 Орлеан Скачать торрент  

    как кено?piratbit.pw



    18-10-2015 10:57 Орлеан Скачать торрент  

    шикардосный гротеск
    для думающих людей = искусное аллегорическое преломление высоких моральных ценностей до идиосинкратического бреда путем излома логики псевдофилософиейpiratbit.pw



    18-10-2015 13:21 Орлеан Скачать торрент  

    Бред так бред, убедимся.СПС.piratbit.pw



    18-10-2015 20:43 Орлеан Скачать торрент  

    Неоднозначный со смыслом фильм. «Орлеан» несомненно понравится людям, умеющим думать и читать между срок. Это серьезное, претенциозное кино на которое стоит потратить свое время. Актерский состав подобран идеально. Оценки оправданы на кинопоиске, моя 8 /10.piratbit.pw



      Дорогой пользователь! Огромная просьба, поблагодарите релизера, оцените раздачу и оставьте свои комментарий, если Вы скачали Орлеан через торрент бесплатно! Внесите свою лепту в развитие PiratBit!
      Комментировать посты могут только пользователи прошедшие не сложную регистрацию
      Показать сообщения:    

      Орлеан через торрент
      Скачать бесплатно Орлеан
      Орлеан скачать торрент
      Орлеан смотреть онлайн
      Cкачать фильм Орлеан бесплатно
      Орлеан скачать торрент в хорошем качестве
      Орлеан смотреть онлайн бесплатно в хорошем качестве


      Вы не можете начинать темы
      Вы не можете отвечать на сообщения
      Вы не можете редактировать свои сообщения
      Вы не можете удалять свои сообщения
      Вы не можете голосовать в опросах
      Вы не можете прикреплять файлы к сообщениям
      Вы можете скачивать файлы