1 сезон

3 сезон

iTunes

1

iTunes

DUB Netflix

iTunes

13

1 сезон

RePack

30

Deluxe

pack

Легкие деньги

ВАЖНО

ИГРА 18+

pack

RePack

MK11

RePack

jed

RePack

fifa19

RePack

RDR2

RePack

NEED FOR SPEED™ PAYBACK

4 сезон

9 сезон

Бесстыжие 9 сезон

Все сериалы

все сериалы на PB.wtf

RePack

FAR CRY 5

Anonymous, доброе утро, мы не успеваем до 1 числа собрать деньги на оплату серверов, помогите нам пожалуйста в это трудное время. В качестве благодарности мы отключим Вам всю рекламу на сайте (укажите свой ник в строку Ваше имя)!

×
  
Magnet ссылка

Паранойя / Disturbia (Д. Дж. Карузо) [2007, триллер, драма, детектив, BDRip AVC by msltel] DUB, MVO, AVO piratbit.pw

Паранойя через торрент piratbit.pw

Размер: 3.37 GB | Добавлен: 5 лет 8 мес. назад | Торрент скачан:142 раза
Скачать  

16-10-2015 08:15 Паранойя Скачать торрент  

Название: Паранойя
Оригинальное название: Disturbia
Год выпуска: 2007
Страна: США
Жанр: триллер, драма, детектив
Продолжительность: 01:44:36
Перевод: дублированный, профессиональный многоголосый, авторский

Режиссёр: Д. Дж. Карузо

В ролях: Шайа ЛаБаф, Сара Ремер, Кэрри-Энн Мосс, Дэвид Морс, Аарон Ю, Jose Pablo Cantillo, Мэтт Крэвен, Виола Дэвис, Брэндон Карузо, Лучиано Раузо, Дэниэл Карузо, Кевин Куинн, Элиз Мирто, Сюзанн Рико, Кент Шокнек, Рене Ривера, Аманда Уолш, Чарльз Кэрролл, Джиллиан Шуар, Доминик Дэниэл, Лиза Тобин

Описание: До автокатастрофы, в которой погиб его отец, жизнь Кейла и его семьи была пригородным раем: счастливая семья, живущая в прекрасном двухэтажном доме на лоне природы. Однако после гибели отца жизнь изменилась. Да ещё, когда один из школьных учителей Кейла позволил себе бестактную шутку по поводу отца, Кейл ответил ему так, что оказался в суде. Его приговаривают к домашнему аресту. Он должен носить на ноге браслет, который сигнализирует полиции, если он отойдёт от дома дальше тридцати метров. Теперь он сходит с ума в собственном доме, пока его мама пытается свести концы с концами, работая почти круглосуточно. Окна его дома становятся его миром. Он не хочет разбираться со своими чувствами, потому что это для него слишком болезненно. Так он начинает смотреть по сторонам, изучать боль и трагедии других людей, формирование и распад их взаимоотношений. И в процессе этого он находит человека, которого он считает убийцей...



Качество: BDRip AVC Сравнение с исходником
Формат: MKV
Видео: MPEG-4 AVC, 2726 Кбит/с, 1024x576, 23,976 кадра/с
Аудио 1: русский, AC3, 448 kbps, 6 ch, 48 kHz [дублированный]
Аудио 2: русский, AC3, 448 kbps, 6 ch, 48 kHz [профессиональный многоголосый, Киномания]
Аудио 3: русский, AC3, 448 kbps, 6 ch, 48 kHz [авторский, Владимир Королёв]
Аудио 4: английский, AC3, 448 kbps, 6 ch, 48 kHz [оригинал]
Субтитры 1: русские
Субтитры 2: английские
Общее
Уникальный идентификатор : 184008550359568277086018399643314145345 (0x8A6EC1F9AE4E5408B0CE9B90FA73C841)
Полное имя : D:\Video\Паранойя.2007.BDRip.AVC.mkv
Формат : Matroska
Версия формата : Version 4 / Version 2
Размер файла : 3,37 Гбайт
Продолжительность : 1 ч. 44 м.
Общий поток : 4610 Кбит/сек
Название фильма : BDRip -- STarankov
Дата кодирования : UTC 2015-10-15 06:19:07
Программа кодирования : mkvmerge v8.2.0 ('World of Adventure') 64bit
Библиотека кодирования : libebml v1.3.1 + libmatroska v1.4.2
DURATION : 01:38:14.084000000
NUMBER_OF_FRAMES : 1212
NUMBER_OF_BYTES : 42360
_STATISTICS_WRITING_APP : mkvmerge v8.2.0 ('World of Adventure') 64bit
_STATISTICS_WRITING_DATE_UTC : 2015-10-15 06:19:07
_STATISTICS_TAGS : BPS DURATION NUMBER_OF_FRAMES NUMBER_OF_BYTES

Видео
Идентификатор : 1
Формат : AVC
Формат/Информация : Advanced Video Codec
Профиль формата : High@L4.1
Параметр CABAC формата : Да
Параметр ReFrames формата : 9 кадров
Идентификатор кодека : V_MPEG4/ISO/AVC
Продолжительность : 1 ч. 44 м.
Битрейт : 2726 Кбит/сек
Ширина : 1024 пикселя
Высота : 576 пикселей
Соотношение сторон : 16:9
Режим частоты кадров : Постоянный
Частота кадров : 23,976 кадра/сек
Цветовое пространство : YUV
Субдискретизация насыщенности : 4:2:0
Битовая глубина : 8 бит
Тип развёртки : Прогрессивная
Бит/(Пиксели*Кадры) : 0.193
Размер потока : 1,99 Гбайт (59%)
Библиотека кодирования : x264 core 146 r2538 121396c
Настройки программы : cabac=1 / ref=9 / deblock=1:-1:-1 / analyse=0x3:0x113 / me=umh / subme=10 / psy=1 / psy_rd=1.00:0.15 / mixed_ref=1 / me_range=32 / chroma_me=1 / trellis=2 / 8x8dct=1 / cqm=0 / deadzone=21,11 / fast_pskip=1 / chroma_qp_offset=-3 / threads=6 / lookahead_threads=1 / sliced_threads=0 / nr=0 / decimate=1 / interlaced=0 / bluray_compat=0 / constrained_intra=0 / bframes=12 / b_pyramid=2 / b_adapt=2 / b_bias=0 / direct=1 / weightb=1 / open_gop=0 / weightp=2 / keyint=230 / keyint_min=23 / scenecut=40 / intra_refresh=0 / rc_lookahead=40 / rc=crf / mbtree=0 / crf=18.6 / qcomp=0.60 / qpmin=0 / qpmax=69 / qpstep=4 / vbv_maxrate=40000 / vbv_bufsize=50000 / crf_max=0.0 / nal_hrd=none / filler=0 / ip_ratio=1.40 / pb_ratio=1.30 / aq=1:1.00
Язык : English
Default : Да
Forced : Нет
DURATION : 01:44:36.270000000
NUMBER_OF_FRAMES : 150480
NUMBER_OF_BYTES : 2208646163
_STATISTICS_WRITING_APP : mkvmerge v8.2.0 ('World of Adventure') 64bit
_STATISTICS_WRITING_DATE_UTC : 2015-10-15 06:19:07
_STATISTICS_TAGS : BPS DURATION NUMBER_OF_FRAMES NUMBER_OF_BYTES

Аудио #1
Идентификатор : 2
Формат : AC-3
Формат/Информация : Audio Coding 3
Расширение режима : CM (complete main)
Параметр Endianness формата : Big
Идентификатор кодека : A_AC3
Продолжительность : 1 ч. 44 м.
Вид битрейта : Постоянный
Битрейт : 448 Кбит/сек
Каналы : 6 каналов
Расположение каналов : Front: L C R, Side: L R, LFE
Частота : 48,0 КГц
Метод сжатия : С потерями
Размер потока : 335 Мбайт (10%)
Заголовок : DUB
Язык : Russian
Default : Да
Forced : Нет

Аудио #2
Идентификатор : 3
Формат : AC-3
Формат/Информация : Audio Coding 3
Расширение режима : CM (complete main)
Параметр Endianness формата : Big
Идентификатор кодека : A_AC3
Продолжительность : 1 ч. 44 м.
Вид битрейта : Постоянный
Битрейт : 448 Кбит/сек
Каналы : 6 каналов
Расположение каналов : Front: L C R, Side: L R, LFE
Частота : 48,0 КГц
Метод сжатия : С потерями
Размер потока : 335 Мбайт (10%)
Заголовок : MVO (Киномания)
Язык : Russian
Default : Нет
Forced : Нет

Аудио #3
Идентификатор : 4
Формат : AC-3
Формат/Информация : Audio Coding 3
Расширение режима : CM (complete main)
Параметр Endianness формата : Big
Идентификатор кодека : A_AC3
Продолжительность : 1 ч. 44 м.
Вид битрейта : Постоянный
Битрейт : 448 Кбит/сек
Каналы : 6 каналов
Расположение каналов : Front: L C R, Side: L R, LFE
Частота : 48,0 КГц
Метод сжатия : С потерями
Размер потока : 335 Мбайт (10%)
Заголовок : AVO (Владимир Королёв)
Язык : Russian
Default : Нет
Forced : Нет

Аудио #4
Идентификатор : 5
Формат : AC-3
Формат/Информация : Audio Coding 3
Расширение режима : CM (complete main)
Параметр Endianness формата : Big
Идентификатор кодека : A_AC3
Продолжительность : 1 ч. 44 м.
Вид битрейта : Постоянный
Битрейт : 448 Кбит/сек
Каналы : 6 каналов
Расположение каналов : Front: L C R, Side: L R, LFE
Частота : 48,0 КГц
Метод сжатия : С потерями
Размер потока : 335 Мбайт (10%)
Заголовок : Original
Язык : English
Default : Нет
Forced : Нет

Текст #1
Идентификатор : 6
Формат : UTF-8
Идентификатор кодека : S_TEXT/UTF8
Идентификатор кодека/Информация : UTF-8 Plain Text
Заголовок : русский
Язык : Russian
Default : Нет
Forced : Нет

Текст #2
Идентификатор : 7
Формат : UTF-8
Идентификатор кодека : S_TEXT/UTF8
Идентификатор кодека/Информация : UTF-8 Plain Text
Заголовок : английский
Default : Нет
Forced : Нет
piratbit.pw



Скачать Паранойя через торрент http://i67.fastpic.ru/big/2015/1016/ae/4584445ab9e11309e8422dc71da35eae.jpg Скачать фильм Паранойя через торрент бесплантно в хорошем качестве Описание: До автокатастрофы, в которой погиб его отец, жизнь Кейла и его семьи была пригородным раем: счастливая семья, живущая в ... 9.8 10 6
Info! Золотая раздача, скачанное не засчитывается.
Торрент: Зарегистрирован [2015-10-16 08:15] · скачан: 142 раз
Статус: √ проверено
Размер: 3.37 GB
Как cкачать? Как скачать Паранойя через торрент | UTorrent

% Раздел Тема Автор DL S | L
Фильмы [HD 720p, 1080p] (Хороший звук DUB, MVO) [ 14.98 GB ] Паранойя / Disturbia [2007 BDRip 1080p by msltel] DUB MVO AVO msltel Скачать
1 | 0
Фильмы [HD 720p, 1080p] (Хороший звук DUB, MVO) [ 5.81 GB ] Паранойя / Disturbia [2007 BDRip 720p by msltel] DUB MVO AVO msltel Скачать
1 | 0

28-11-2019 20:33  

Отключить всю рекламу на сайте

    Дорогой пользователь! Огромная просьба, поблагодарите релизера, оцените раздачу и оставьте свои комментарий, если Вы скачали Паранойя через торрент бесплатно! Внесите свою лепту в развитие PiratBit!
    Комментировать посты могут только пользователи прошедшие не сложную регистрацию
    Показать сообщения:    

    Паранойя через торрент
    Скачать бесплатно Паранойя
    Паранойя скачать торрент
    Паранойя смотреть онлайн
    Cкачать фильм Паранойя бесплатно
    Паранойя скачать торрент в хорошем качестве
    Паранойя смотреть онлайн бесплатно в хорошем качестве


    Вы не можете начинать темы
    Вы не можете отвечать на сообщения
    Вы не можете редактировать свои сообщения
    Вы не можете удалять свои сообщения
    Вы не можете голосовать в опросах
    Вы не можете прикреплять файлы к сообщениям
    Вы можете скачивать файлы