1 сезон

1 сезон

iTunes

1

КиноПоиск HD

Кинопоиск HD

iTunes

13

1 сезон

RePack

30

Новинка

ВАЖНО

ИГРА 18+

pack

RePack

MK11
pack

Легкие деньги

RePack

jed

RePack

fifa19

RePack

RDR2

RePack

NEED FOR SPEED™ PAYBACK

4 сезон

9 сезон

Бесстыжие 9 сезон

Все сериалы

все сериалы на PB.wtf

RePack

FAR CRY 5
  
Magnet ссылка

Чёрные души / Anime nere (Франческо Мунци) [2014 г., драма, HDRip, Авторский одноголосый закадровый "В. Белов"] piratbit.pw

Чёрные души через торрент piratbit.pw

Размер: 1.94 GB | Добавлен: 5 лет 6 мес. назад | Торрент скачан:130 раз
Скачать  

08-10-2015 18:24 Чёрные души Скачать торрент  

Чёрные души / Anime nere
Год выпуска: 2014
Страна: Италия, Франция / Cinemaundici, Babe Film, Rai Cinema
Жанр: драма
Продолжительность: 01:48:55
Перевод: Авторский одноголосый закадровый (В. Белов)
Субтитры: Итальянские (неотключаемые)

Режиссер: Франческо Мунци

В ролях: Марко Леонарди, Пеппино Маззотта, Фабрицио Ферракане, Барбора Бобулова, Анна Ферруццо, Джузеппе Фумо, Паскуале Ромео, , Аврора Кваттрокки, Карлос Бардем

Описание: В фильме рассказывается история трех братьев, детей пастуха из маленького города, расположенного в горах Калабрии.

Качество: HDRip
Формат: AVI
Видео кодек: XviD
Аудио кодек: AC3
Видео: 720x304 (2.37:1), 24.000 fps, XviD build 50 ~2094 kbps avg, 0.40 bit/pixel
Аудио: 48 kHz, AC3 Dolby Digital, 3/2 (L,C,R,l,r) + LFE ch, ~448 kbps

Общее
Полное имя : F:\кино\Чёрные души.2014.HDRip.avi
Формат : AVI
Формат/Информация : Audio Video Interleave
Размер файла : 1,94 Гбайт
Продолжительность : 1 ч. 48 м.
Общий поток : 2552 Кбит/сек
Программа кодирования : VirtualDubMod 1.5.10.3 | www.virtualdub-fr.org || (build 2550/release)
Библиотека кодирования : VirtualDubMod build 2550/release

Видео
Идентификатор : 0
Формат : MPEG-4 Visual
Профиль формата : Advanced Simple@L5
Параметр BVOP формата : 2
Параметр QPel формата : Нет
Параметр GMC формата : Без точки перехода
Параметр матрицы формата : Default (H.263)
Идентификатор кодека : XVID
Идентификатор кодека/Подсказка : XviD
Продолжительность : 1 ч. 48 м.
Битрейт : 2095 Кбит/сек
Ширина : 720 пикселей
Высота : 304 пикселя
Соотношение сторон : 2,35:1
Частота кадров : 24,000 кадра/сек
Цветовое пространство : YUV
Субдискретизация насыщенности : 4:2:0
Битовая глубина : 8 бит
Тип развёртки : Прогрессивная
Метод сжатия : С потерями
Бит/(Пиксели*Кадры) : 0.399
Размер потока : 1,59 Гбайт (82%)
Библиотека кодирования : XviD 1.2.1 (UTC 2008-12-04)

Аудио
Идентификатор : 1
Формат : AC-3
Формат/Информация : Audio Coding 3
Расширение режима : CM (complete main)
Параметр Endianness формата : Big
Идентификатор кодека : 2000
Продолжительность : 1 ч. 48 м.
Вид битрейта : Постоянный
Битрейт : 448 Кбит/сек
Каналы : 6 каналов
Расположение каналов : Front: L C R, Side: L R, LFE
Частота : 48,0 КГц
Метод сжатия : С потерями
Размер потока : 349 Мбайт (18%)
Выравнивание : Разделение по промежуткам
Продолжительность промежутка : 42 мс. (1,00 видеокадр)
Время предзагрузки промежутка : 500 мс.

piratbit.pw



Скачать Чёрные души через торрент https://pic1.kartinco.top/images/10/ckcqf.jpg Скачать фильм Чёрные души через торрент бесплантно в хорошем качестве Описание: В фильме рассказывается история трех братьев, детей пастуха из маленького города, расположенного в горах ... 9.6 10 9
Info! Золотая раздача, скачанное не засчитывается.
Торрент: Зарегистрирован [2015-10-08 18:24] · скачан: 130 раз
Статус: √ проверено
Размер: 1.94 GB
Как cкачать? Как скачать Чёрные души через торрент | UTorrent

% Раздел Тема Автор DL S | L
Фильмы (Blu-ray, BD-Remux, HDDVD) [ 25.31 GB ] Чёрные души / Anime nere [2014 BDRemux 1080p от HDClub] AVO Ворон Скачать
1 | 0
Фильмы без перевода [ 1.6 GB ] Чёрные души / Anime nere [2014 HDRip Субтитры RUS] Ворон Скачать
1 | 0

28-11-2019 20:33  

Отключить всю рекламу на сайте

25-10-2015 19:04 Чёрные души Скачать торрент  

Мрачный сюжет в темном итальянском захолустье про чернуху ихней суровой жизни. Словом, чернее некуда. Любителям про коза-ностру в колхозе смотреть можно.piratbit.pw



    Дорогой пользователь! Огромная просьба, поблагодарите релизера, оцените раздачу и оставьте свои комментарий, если Вы скачали Чёрные души через торрент бесплатно! Внесите свою лепту в развитие PiratBit!
    Комментировать посты могут только пользователи прошедшие не сложную регистрацию
    Показать сообщения:    

    Чёрные души через торрент
    Скачать бесплатно Чёрные души
    Чёрные души скачать торрент
    Чёрные души смотреть онлайн
    Cкачать фильм Чёрные души бесплатно
    Чёрные души скачать торрент в хорошем качестве
    Чёрные души смотреть онлайн бесплатно в хорошем качестве


    Вы не можете начинать темы
    Вы не можете отвечать на сообщения
    Вы не можете редактировать свои сообщения
    Вы не можете удалять свои сообщения
    Вы не можете голосовать в опросах
    Вы не можете прикреплять файлы к сообщениям
    Вы можете скачивать файлы