Marvel's Avengers Deluxe Edition (супер цена) 159р. Внимание количество ограничено!!!

2 сезон

iTunes

iTunes

1

iTunes

iTunes

iTunes

WEBRip

iTunes

30
pack

Новость дня

ВАЖНО

!!Акция!!

Alien_RageХит недели

RePack

Horizon Zero Dawn

ИГРА 18+

pack

RePack

jed

!!Акция!!

Alien_Rage

RePack

fifa19

RePack

Assassins Creed: Odyssey

RePack

NEED FOR SPEED™ PAYBACK

4 сезон

9 сезон

Бесстыжие 9 сезон

Все сериалы

все сериалы на PB.wtf

RePack

FAR CRY 5
  

Развод по собственному желанию (Илья Северов) [2015, комедия, мелодрама, WEB - DLRip 720p] piratbit.pw

Развод по собственному желанию через торрент piratbit.pw

Размер: 1.76 GB | Добавлен: 4 года 11 мес. назад | Торрент скачан:136 раз
Скачать  

08-10-2015 06:27 Развод по собственному желанию Скачать торрент  


Развод по собственному желанию



Год выпуска: 2015
Страны: Россия
Жанры: комедия, мелодрама
Продолжительность: 01:25:17
Перевод: Оригинал

Режиссер: Илья Северов
Сценарий: Илья Северов
В ролях:
Константин Юшкевич (Сергей), Наталья Суркова (Елена), Вячеслав Коробицин (Антон), Юрий Гальцев (Геннадий), Наталья Ткаченко (Екатерина)


Тренер, велогонщик в прошлом, Сергей и основательница сети книжных магазинов Елена уже двадцать лет вместе. Из неожиданно разгоревшейся супружеской ссоры возникает серьезный скандал, грозящий перерасти в развод.Сиюминутное решение Сергея — начать все заново. Он уходит из дома и не подозревает, что жизнь может кардинально поменяться всего за несколько часов. Круговерть невероятных приключений, в которые втягивает лучший друг, и безумных ситуаций с близкими проверят на прочность крепость семейных уз Сергея и Елены.
Бюджет: $1 200 000
Премьера (РФ): 10 сентября 2015

Качество: WEB - DLRip (720p)
Формат: MKV
Видео кодек: AVC
Аудио кодек: AC3
Видео: 1280x672 (1.905:1), 25.000 fps, AVC, 2 569 Kbps
Аудио: AC3, 384 Kbps, 48.0 KHz, 2 ch - Russian
General
Unique ID : 206534527120087241697842274318020119842 (0x9B611A605F9FABE08945CEB523EA0D22)
Complete name : Pa3B0d.po.C0BmeCH0my.Zhelaniu.2015.O.WEB-DLRip.720p.mkv
Format : Matroska
Format version : Version 4 / Version 2
File size : 1.76 GiB
Duration : 1h 25mn
Overall bit rate : 2 946 Kbps
Encoded date : UTC 2015-10-07 23:11:07
Writing application : mkvmerge v6.9.1 ('Blue Panther') 64bit built on Apr 18 2014 18:23:38
Writing library : libebml v1.3.0 + libmatroska v1.4.1

Video
ID : 1
Format : AVC
Format/Info : Advanced Video Codec
Format profile : High@L4.0
Format settings, CABAC : Yes
Format settings, ReFrames : 4 frames
Codec ID : V_MPEG4/ISO/AVC
Duration : 1h 25mn
Bit rate : 2 569 Kbps
Width : 1 280 pixels
Height : 672 pixels
Display aspect ratio : 1.905
Frame rate mode : Constant
Frame rate : 25.000 fps
Color space : YUV
Chroma subsampling : 4:2:0
Bit depth : 8 bits
Scan type : Progressive
Bits/(Pixel*Frame) : 0.119
Stream size : 1.49 GiB (85%)
Writing library : x264 core 142
Encoding settings : cabac=1 / ref=3 / deblock=1:0:0 / analyse=0x3:0x113 / me=hex / subme=7 / psy=1 / psy_rd=1.00:0.00 / mixed_ref=1 / me_range=16 / chroma_me=1 / trellis=1 / 8x8dct=1 / cqm=0 / deadzone=21,11 / fast_pskip=1 / chroma_qp_offset=-2 / threads=36 / lookahead_threads=5 / sliced_threads=0 / nr=0 / decimate=1 / interlaced=0 / bluray_compat=0 / constrained_intra=0 / bframes=6 / b_pyramid=2 / b_adapt=1 / b_bias=0 / direct=1 / weightb=1 / open_gop=0 / weightp=2 / keyint=200 / keyint_min=20 / scenecut=0 / intra_refresh=0 / rc_lookahead=40 / rc=2pass / mbtree=1 / bitrate=2569 / ratetol=1.0 / qcomp=0.60 / qpmin=0 / qpmax=69 / qpstep=4 / cplxblur=20.0 / qblur=0.5 / vbv_maxrate=3854 / vbv_bufsize=10279 / nal_hrd=none / filler=0 / ip_ratio=1.40 / aq=1:1.00
Language : Russian
Default : Yes
Forced : No

Audio
ID : 2
Format : AC-3
Format/Info : Audio Coding 3
Mode extension : CM (complete main)
Format settings, Endianness : Big
Codec ID : A_AC3
Duration : 1h 25mn
Bit rate mode : Constant
Bit rate : 384 Kbps
Channel(s) : 2 channels
Channel positions : Front: L R
Sampling rate : 48.0 KHz
Bit depth : 16 bits
Compression mode : Lossy
Stream size : 234 MiB (13%)
Language : Russian
Default : Yes
Forced : No
piratbit.pw



Скачать Развод по собственному желанию через торрент http://i69.fastpic.ru/big/2015/1008/92/1bfacfcff5149eb8ea658a46422cc292.jpg Скачать фильм Развод по собственному желанию через торрент бесплантно в хорошем качестве В ролях: Константин Юшкевич (Сергей), Наталья Суркова (Елена), Вячеслав Коробицин (Антон), Юрий Гальцев (Геннадий), Наталья Ткаченко ... 8.3 10 6
Торрент: Зарегистрирован [2015-10-08 06:27] · скачан: 136 раз
Статус: √ проверено
Размер: 1.76 GB
Как cкачать? Как скачать Развод по собственному желанию через торрент | qTorrent

% Раздел Тема Автор DL S | L
Наши новые фильмы 2015 [ 1.37 GB ] Развод по собственному желанию [2015 WEB-DLRip] кэп Скачать
1 | 0

28-11-2019 20:33  

Отключить всю рекламу на сайте

    Дорогой пользователь! Огромная просьба, поблагодарите релизера, оцените раздачу и оставьте свои комментарий, если Вы скачали Развод по собственному желанию через торрент бесплатно! Внесите свою лепту в развитие PiratBit!
    Комментировать посты могут только пользователи прошедшие не сложную регистрацию
    Показать сообщения:    

    Развод по собственному желанию через торрент
    Скачать бесплатно Развод по собственному желанию
    Развод по собственному желанию скачать торрент
    Развод по собственному желанию смотреть онлайн
    Cкачать фильм Развод по собственному желанию бесплатно
    Развод по собственному желанию скачать торрент в хорошем качестве
    Развод по собственному желанию смотреть онлайн бесплатно в хорошем качестве


    Вы не можете начинать темы
    Вы не можете отвечать на сообщения
    Вы не можете редактировать свои сообщения
    Вы не можете удалять свои сообщения
    Вы не можете голосовать в опросах
    Вы не можете прикреплять файлы к сообщениям
    Вы можете скачивать файлы