1 сезон

1 сезон

iTunes

1

КиноПоиск HD

Кинопоиск HD

iTunes

13

1 сезон

RePack

30

Новинка

ВАЖНО

ИГРА 18+

pack

RePack

MK11
pack

Легкие деньги

RePack

jed

RePack

fifa19

RePack

RDR2

RePack

NEED FOR SPEED™ PAYBACK

4 сезон

9 сезон

Бесстыжие 9 сезон

Все сериалы

все сериалы на PB.wtf

RePack

FAR CRY 5
  
Magnet ссылка

Ночные движения / Night Moves (Келли Райхардт) [2013, триллер, драма, HDRip, Авторский (одноголосый) [Чадов] piratbit.pw

Ночные движения через торрент piratbit.pw

Размер: 2.05 GB | Добавлен: 5 лет 6 мес. назад | Торрент скачан:16 раз
Скачать  

30-09-2015 14:40 Ночные движения Скачать торрент  


Ночные движения / Night Moves


ИНФОРМАЦИЯ:
Год выпуска:2013
Страна: США
Жанр: триллер, драма
Продолжительность: 01:52:37
Перевод: Авторский (одноголосый) [Чадов]
Режиссер: Келли Райхардт

В Ролях:


Джесси Айзенберг (Josh), Дакота Фаннинг (Dena), Питер Сарсгаард (Harmon), Алиа Шокат (Surprise), Логан Миллер (Dylan), Кай Леннокс (Sean), Кэтрин Уотерстон (Anne), Джеймс ЛеГрос (Feed Factory Clerk), Autumn Nidalmia (Mable), Бэрри Дель Шерман (Corser), Jason Rojas (Activist 1), Клара Мамет (Activist Filmmaker)

Описание:
Фильм расскажет о трех защитниках окружающей среды, которые медленно, но верно приходят к намерению взорвать дамбу.

  • Мировая премьера:31 августа 2013

    ТЕХ.ДАННЫЕ:
    Качество: HDRip
    Формат: AVI
    Видео: XviD, 720x400 (16:9), 1664 kbps, 23,976 fps, 0,241 bpp
    Аудио №1: AC3 / 5.1 / 48 kHz / 448 kbps / Russian
    Аудио №2: AC3 / 5.1 / 48 kHz / 384 kbps / English


    General
    Complete name : D:\Торенты\Night Moves.2013.A1.HDRip.avi
    Format : AVI
    Format/Info : Audio Video Interleave
    File size : 2.05 GiB
    Duration : 1h 52mn
    Overall bit rate : 2 611 Kbps
    Writing application : VirtualDubMod 1.5.10.2 (build 2540/release)
    Writing library : VirtualDubMod build 2540/release

    Video
    ID : 0
    Format : MPEG-4 Visual
    Format profile : Advanced Simple@L5
    Format settings, BVOP : 2
    Format settings, QPel : No
    Format settings, GMC : No warppoints
    Format settings, Matrix : Custom
    Codec ID : XVID
    Codec ID/Hint : XviD
    Duration : 1h 52mn
    Bit rate : 1 665 Kbps
    Width : 720 pixels
    Height : 400 pixels
    Display aspect ratio : 16:9
    Frame rate : 23.976 fps
    Color space : YUV
    Chroma subsampling : 4:2:0
    Bit depth : 8 bits
    Scan type : Progressive
    Compression mode : Lossy
    Bits/(Pixel*Frame) : 0.241
    Stream size : 1.31 GiB (64%)
    Writing library : XviD 1.2.1 (UTC 2008-12-04)

    Audio #1
    ID : 1
    Format : AC-3
    Format/Info : Audio Coding 3
    Mode extension : CM (complete main)
    Codec ID : 2000
    Duration : 1h 52mn
    Bit rate mode : Constant
    Bit rate : 448 Kbps
    Channel(s) : 6 channels
    Channel positions : Front: L C R, Side: L R, LFE
    Sampling rate : 48.0 KHz
    Bit depth : 16 bits
    Compression mode : Lossy
    Stream size : 361 MiB (17%)
    Alignment : Split accross interleaves

    Audio #2
    ID : 2
    Format : AC-3
    Format/Info : Audio Coding 3
    Mode extension : CM (complete main)
    Codec ID : 2000
    Duration : 1h 52mn
    Bit rate mode : Constant
    Bit rate : 384 Kbps
    Channel(s) : 6 channels
    Channel positions : Front: L C R, Side: L R, LFE
    Sampling rate : 48.0 KHz
    Bit depth : 16 bits
    Compression mode : Lossy
    Stream size : 309 MiB (15%)
    Alignment : Split accross interleaves
    Скриншоты:


    © Оформление by Ворон
    piratbit.pw



  • Скачать Ночные движения через торрент https://pic.kartinco.top/images/6/ordi9.jpg Скачать фильм Ночные движения через торрент бесплантно в хорошем качестве Описание: Фильм расскажет о трех защитниках окружающей среды, которые медленно, но верно приходят к намерению взорвать дамбу. Мировая ... 10 10 4
    Торрент: Зарегистрирован [2015-09-30 14:40] · скачан: 16 раз
    Статус: √ проверено
    Размер: 2.05 GB
    Как cкачать? Как скачать Ночные движения через торрент | UTorrent

    % Раздел Тема Автор DL S | L
    Фильмы с авторской озвучкой [ 6.58 GB ] Ночные движения / Night Moves [2013 BDRip 720p Авторский [Чадов] Ворон Скачать
    1 | 0

    28-11-2019 20:33  

    Отключить всю рекламу на сайте

      Дорогой пользователь! Огромная просьба, поблагодарите релизера, оцените раздачу и оставьте свои комментарий, если Вы скачали Ночные движения через торрент бесплатно! Внесите свою лепту в развитие PiratBit!
      Комментировать посты могут только пользователи прошедшие не сложную регистрацию
      Показать сообщения:    

      Ночные движения через торрент
      Скачать бесплатно Ночные движения
      Ночные движения скачать торрент
      Ночные движения смотреть онлайн
      Cкачать фильм Ночные движения бесплатно
      Ночные движения скачать торрент в хорошем качестве
      Ночные движения смотреть онлайн бесплатно в хорошем качестве


      Вы не можете начинать темы
      Вы не можете отвечать на сообщения
      Вы не можете редактировать свои сообщения
      Вы не можете удалять свои сообщения
      Вы не можете голосовать в опросах
      Вы не можете прикреплять файлы к сообщениям
      Вы можете скачивать файлы