Marvel's Avengers Deluxe Edition (супер цена) 159р. Внимание количество ограничено!!!

2 сезон

iTunes

iTunes

1

iTunes

iTunes

iTunes

WEBRip

iTunes

30
pack

Новость дня

ВАЖНО

!!Акция!!

Alien_RageХит недели

RePack

Horizon Zero Dawn

ИГРА 18+

pack

RePack

jed

!!Акция!!

Alien_Rage

RePack

fifa19

RePack

Assassins Creed: Odyssey

RePack

NEED FOR SPEED™ PAYBACK

4 сезон

9 сезон

Бесстыжие 9 сезон

Все сериалы

все сериалы на PB.wtf

RePack

FAR CRY 5
  

Утомленные солнцем (Никита Михалков) [1994, драма, военный, история, WEB-DL 1080p, Оригинальный] piratbit.pw

Утомленные солнцем через торрент piratbit.pw

Размер: 5.39 GB | Добавлен: 4 года 11 мес. назад | Торрент скачан:133 раза
Скачать  

22-09-2015 08:47 Утомленные солнцем Скачать торрент  


Утомленные солнцем
««A moving and poignant story set against the corrupt politics of the Stalinist era»»

ИНФОРМАЦИЯ:
Год выпуска:1994
Страна: Россия, Франция
Жанр: драма, военный, история
Продолжительность: 02:21:54
Перевод: Оригинальный
Режиссер: Никита Михалков

В Ролях:


Олег Меньшиков (Дмитрий), Никита Михалков (комдив Сергей Котов), Ингеборга Дапкунайте (Маруся), Надежда Михалкова (Надя), Андре Умански (Филипп), Вячеслав Тихонов (Всеволод Константинович), Светлана Крючкова (Мохова), Владимир Ильин (Кирик), Алла Казанская (Лидия Степановна), Нина Архипова (Елена Михайловна), Авангард Леонтьев (шофёр), Инна Ульянова (Ольга Николаевна)

Описание:
Солнечный летний день 1936 года. Молодая страна, полная энтузиазма, празднует 4-ю годовщину сталинского дирижаблестроения. Легендарный комдив Котов и его большая шумная семья отдыхают на даче. В старом доме собралась тьма народу: жена-красавица, непоседа-дочь, тесть - известный русский дирижер, родственники и друзья, домработницы и соседи.
Веселье бьет через край, и мысль, что что-то в жизни может измениться, покажется всем абсурдом. Они все будут счастливы вечно! И никто, даже мудрый Котов, не хочет верить в неизбежное. В то, что этот солнечный день кончится - и не повторится уже никогда.

  • Мировая премьера:21 мая 1994

    ТЕХ.ДАННЫЕ:
    Качество: WEB-DL 1080p
    Формат: MKV
    Видео: AVC, 1912x1072 (16:9), 4947 kbps, 25 fps, 0,097 bpp
    Аудио: русский / AC3 / 5.1 / 48 kHz / 384 kbps / 16 bit ||


    General
    Unique ID : 250611016419222741761938972960776759310 (0xBC89ED14554D8B36A307179C282FA80E)
    Complete name : D:\Торенты\Кино\Утомленные солнцем (1080p HD).mkv
    Format : Matroska
    Format version : Version 4 / Version 2
    File size : 5.39 GiB
    Duration : 2h 21mn
    Overall bit rate : 5 440 Kbps
    Encoded date : UTC 2015-05-10 12:27:31
    Writing application : mkvmerge v7.8.0 ('River Man') 64bit built on Mar 27 2015 16:31:37
    Writing library : libebml v1.3.1 + libmatroska v1.4.2

    Video
    ID : 1
    Format : AVC
    Format/Info : Advanced Video Codec
    Format profile : High@L4.0
    Format settings, CABAC : Yes
    Format settings, ReFrames : 4 frames
    Codec ID : V_MPEG4/ISO/AVC
    Duration : 2h 21mn
    Bit rate : 4 948 Kbps
    Width : 1 912 pixels
    Height : 1 072 pixels
    Display aspect ratio : 16:9
    Frame rate : 25.000 fps
    Color space : YUV
    Chroma subsampling : 4:2:0
    Bit depth : 8 bits
    Scan type : Progressive
    Bits/(Pixel*Frame) : 0.097
    Stream size : 4.90 GiB (91%)
    Default : Yes
    Forced : No
    Color primaries : BT.709-5, BT.1361, IEC 61966-2-4, SMPTE RP177
    Transfer characteristics : BT.709-5, BT.1361
    Matrix coefficients : BT.709-5, BT.1361, IEC 61966-2-4 709, SMPTE RP177

    Audio
    ID : 2
    Format : AC-3
    Format/Info : Audio Coding 3
    Mode extension : CM (complete main)
    Codec ID : A_AC3
    Duration : 2h 21mn
    Bit rate mode : Constant
    Bit rate : 384 Kbps
    Channel(s) : 6 channels
    Channel positions : Front: L C R, Side: L R, LFE
    Sampling rate : 48.0 KHz
    Bit depth : 16 bits
    Compression mode : Lossy
    Stream size : 390 MiB (7%)
    Language : Russian
    Default : Yes
    Forced : No
    Скриншоты:


    © Оформление by Ворон
    piratbit.pw



  • Скачать Утомленные солнцем через торрент http://pic.kartinco.top/images/6/ordi9.jpg Скачать фильм Утомленные солнцем через торрент бесплантно в хорошем качестве Описание: Солнечный летний день 1936 года. Молодая страна, полная энтузиазма, празднует 4-ю годовщину сталинского дирижаблестроения. ... 7.8 10 4
    Торрент: Зарегистрирован [2015-09-22 08:47] · скачан: 133 раз
    Статус: √ проверено
    Размер: 5.39 GB
    Как cкачать? Как скачать Утомленные солнцем через торрент | qTorrent

    % Раздел Тема Автор DL S | L
    Наши сериалы [ 13.74 GB ] Утомлённые солнцем - 2. Предстояние / Цитадель / Серии: 1-13 из 13 [2011 военный 2xDVD9] R5 Original Rus voovaz Скачать
    1 | 0
    Наши фильмы (Blu-ray, BD-Remux, HDDVD) [ 22.59 GB ] Утомлённые солнцем 2: Предстояние [2010 военный BD Remux 1080p] [] bober100 Скачать
    1 | 0
    Наши фильмы (HD, WEB-DL 720p, 1080p) [ 10.66 GB ] Утомленные солнцем 2: Предстояние [2010 военный BDRip Оригинал ] ~Relizer~ Скачать
    1 | 0
    Наши фильмы 2010-2011 [ 1.37 GB ] Утомленные солнцем 2: Цитадель [2011 военный DVDRip / лицензия] -LoRDaN- Скачать
    1 | 0
    Наши фильмы, до 2010 [ 2.05 GB ] Утомленные солнцем / Utomlyonnye solntsem [1994 DVDRip] манук1977 Скачать
    1 | 0
    Наши фильмы 2010-2011 [ 2.06 GB ] Утомленные солнцем 2: Цитадель [2011 военный HDRip лицензия] Lil Badun Скачать
    1 | 0
    Наши фильмы, до 2010 [ 2.06 GB ] Утомленные солнцем 2: Предстояние [2010 военный DVDRip] L_E_X Скачать
    1 | 0

    28-11-2019 20:33  

    Отключить всю рекламу на сайте

      Дорогой пользователь! Огромная просьба, поблагодарите релизера, оцените раздачу и оставьте свои комментарий, если Вы скачали Утомленные солнцем через торрент бесплатно! Внесите свою лепту в развитие PiratBit!
      Комментировать посты могут только пользователи прошедшие не сложную регистрацию
      Показать сообщения:    

      Утомленные солнцем через торрент
      Скачать бесплатно Утомленные солнцем
      Утомленные солнцем скачать торрент
      Утомленные солнцем смотреть онлайн
      Cкачать фильм Утомленные солнцем бесплатно
      Утомленные солнцем скачать торрент в хорошем качестве
      Утомленные солнцем смотреть онлайн бесплатно в хорошем качестве


      Вы не можете начинать темы
      Вы не можете отвечать на сообщения
      Вы не можете редактировать свои сообщения
      Вы не можете удалять свои сообщения
      Вы не можете голосовать в опросах
      Вы не можете прикреплять файлы к сообщениям
      Вы можете скачивать файлы