1 сезон

3 сезон

iTunes

1

iTunes

DUB Netflix

iTunes

13

1 сезон

RePack

30

Deluxe

pack

Легкие деньги

ВАЖНО

ИГРА 18+

pack

RePack

MK11

RePack

jed

RePack

fifa19

RePack

RDR2

RePack

NEED FOR SPEED™ PAYBACK

4 сезон

9 сезон

Бесстыжие 9 сезон

Все сериалы

все сериалы на PB.wtf

RePack

FAR CRY 5

Anonymous, добрый вечер, мы не успеваем до 1 числа собрать деньги на оплату серверов, помогите нам пожалуйста в это трудное время. В качестве благодарности мы отключим Вам всю рекламу на сайте (укажите свой ник в строку Ваше имя)!

×
  
Magnet ссылка

Падение / The Falling (Кэрол Морли) [2014, драма, детектив, HDRip, Профессиональный (двухголосый)[2D] piratbit.pw

Падение через торрент piratbit.pw

Размер: 1.37 GB | Добавлен: 5 лет 9 мес. назад | Торрент скачан:92 раза
Скачать  

17-09-2015 01:47 Падение Скачать торрент  


Падение / The Falling


ИНФОРМАЦИЯ:
Год выпуска:2014
Страна: Великобритания
Жанр: драма, детектив
Продолжительность: 01:42:14
Перевод: Профессиональный (двухголосый)[2D]
Режиссер: Кэрол Морли

В Ролях:


Мэйси Уильямс (Lydia), Флоренс Паг (Abbie), Грета Скакки (Miss Mantel), Моника Долан (Miss Alvaro), Максин Пик (Eileen), Анна Барнетт (Susan), Роуз Кэтон (Titch), Lauren McCrostie (Gwen), Кэти Найт (Connie), Эви Хутон (Janet), Мэтью Бэйнтон (Mr. Hopkins), Морфидд Кларк (Miss Charron)

Описание:
1969 год, Англия. Лидия и Эбби - лучшие подруги и учащиеся школы для девочек. Лидия, страдающая агорафобией, очень привязывается к Эбби, которая находится на стадии исследования своей сексуальности. Внезапно Лидия начинает страдать от обмороков, как и все остальные девушки в школе. Она полна решимости обнаружить причину этой «эпидемии», призвав администрацию школы принять меры.

  • Мировая премьера:11 октября 2014

    ТЕХ.ДАННЫЕ:
    Качество: HDRip
    Формат: AVI
    Видео: XviD, 720x384 (1.875), 1381 kbps, 24 fps, 0,208 bpp
    Аудио №1: AC3 / 2.0 / 48 kHz / 192 kbps / Русский
    Аудио №2: AC3 / 2.0 / 48 kHz / 256 kbps / английский


    General
    Complete name : D:\Торенты\Paden1e.2014.L2.HDRip.1400MB.avi
    Format : AVI
    Format/Info : Audio Video Interleave
    File size : 1.37 GiB
    Duration : 1h 42mn
    Overall bit rate : 1 916 Kbps
    Writing application : VirtualDubMod 1.5.10.2 (build 2540/release)
    Writing library : VirtualDubMod build 2540/release

    Video
    ID : 0
    Format : MPEG-4 Visual
    Format profile : Advanced Simple@L5
    Format settings, BVOP : 2
    Format settings, QPel : No
    Format settings, GMC : No warppoints
    Format settings, Matrix : Default (H.263)
    Muxing mode : Packed bitstream
    Codec ID : XVID
    Codec ID/Hint : XviD
    Duration : 1h 42mn
    Bit rate : 1 382 Kbps
    Width : 720 pixels
    Height : 384 pixels
    Display aspect ratio : 1.875
    Frame rate : 24.000 fps
    Color space : YUV
    Chroma subsampling : 4:2:0
    Bit depth : 8 bits
    Scan type : Progressive
    Compression mode : Lossy
    Bits/(Pixel*Frame) : 0.208
    Stream size : 1 010 MiB (72%)
    Writing library : XviD 66

    Audio #1
    ID : 1
    Format : AC-3
    Format/Info : Audio Coding 3
    Mode extension : CM (complete main)
    Codec ID : 2000
    Duration : 1h 42mn
    Bit rate mode : Constant
    Bit rate : 192 Kbps
    Channel(s) : 2 channels
    Channel positions : Front: L R
    Sampling rate : 48.0 KHz
    Bit depth : 16 bits
    Compression mode : Lossy
    Delay relative to video : 18ms
    Stream size : 140 MiB (10%)
    Alignment : Split accross interleaves

    Audio #2
    ID : 2
    Format : AC-3
    Format/Info : Audio Coding 3
    Mode extension : CM (complete main)
    Codec ID : 2000
    Duration : 1h 42mn
    Bit rate mode : Constant
    Bit rate : 256 Kbps
    Channel(s) : 2 channels
    Channel positions : Front: L R
    Sampling rate : 48.0 KHz
    Bit depth : 16 bits
    Compression mode : Lossy
    Stream size : 187 MiB (13%)
    Alignment : Split accross interleaves
    Скриншоты:


    © Оформление by Ворон
    piratbit.pw



  • Скачать Падение через торрент https://pic1.kartinco.top/images/61/ordi9.jpg Скачать фильм Падение через торрент бесплантно в хорошем качестве Описание: 1969 год, Англия. Лидия и Эбби - лучшие подруги и учащиеся школы для девочек. Лидия, страдающая агорафобией, очень привязывается ... 10 10 1
    Info! Золотая раздача, скачанное не засчитывается.
    Торрент: Зарегистрирован [2015-09-17 01:48] · скачан: 92 раз
    Статус: √ проверено
    Размер: 1.37 GB
    Как cкачать? Как скачать Падение через торрент | UTorrent

    % Раздел Тема Автор DL S | L
    T Фильмы 2014 [DVDrip, WEB-DLRip, HDrip] [ 1.47 GB ] Падение / The Falling [2014 HDRip многоголосый [официальный звук] Ворон Скачать
    1 | 0
    T Фильмы [HD 720p, 1080p] (Хороший звук DUB, MVO) [ 7.78 GB ] Падение / The Falling [2014 BDRip 1080p многоголосый [официальный звук] Ворон Скачать
    1 | 0

    28-11-2019 20:33  

    Отключить всю рекламу на сайте


      Дорогой пользователь! Огромная просьба, поблагодарите релизера, оцените раздачу и оставьте свои комментарий, если Вы скачали Падение через торрент бесплатно! Внесите свою лепту в развитие PiratBit!
      Комментировать посты могут только пользователи прошедшие не сложную регистрацию
      Показать сообщения:    

      Падение через торрент
      Скачать бесплатно Падение
      Падение скачать торрент
      Падение смотреть онлайн
      Cкачать фильм Падение бесплатно
      Падение скачать торрент в хорошем качестве
      Падение смотреть онлайн бесплатно в хорошем качестве


      Вы не можете начинать темы
      Вы не можете отвечать на сообщения
      Вы не можете редактировать свои сообщения
      Вы не можете удалять свои сообщения
      Вы не можете голосовать в опросах
      Вы не можете прикреплять файлы к сообщениям
      Вы можете скачивать файлы