MEGA SALE -50% FORZA HORIZON 4 ULTIMATE+ВСЕ DLC+ОНЛАЙН всего за 599р. 299 руб. (супер цена). Внимание количество ограничено!!!

iTunes

1+1

iTunes

мы

iTunes

1

iTunes

Чернобыль

1 сезон

Ральф против интернета

Лицензия

ПШазам

Лицензия

Игра престолов

Лицензия

30
pack

ВАЖНО

!!Акция!!

Alien_RageХит недели

RePack

Resident Evil 21

ИГРА 18+

pack

RePack

Metro:Exodus

!!Акция!!

Alien_Rage

RePack

fifa19

RePack

Assassins Creed: Odyssey

RePack

NEED FOR SPEED™ PAYBACK

3 сезон

9 сезон

Бесстыжие 9 сезон

Все сериалы

все сериалы на PB.wtf

RePack

FAR CRY 5
Ребята, катастрофически не хватает 7730р. для оплаты серверов за ИЮЛЬ (всвязи с блокировками трафик упал в 3 раза), 1-2р., выручайте.
  

Райский коттедж / Eden Lodge (Andreas Prodromou) [2015, ужасы, триллер, детектив, DVDRip, Любительский (двухголосый)[2D] piratbit.pw

Райский коттедж через торрент piratbit.pw

Размер: 1.39 GB | Добавлен: 3 года 11 мес. назад | Торрент скачан:335 раз
Скачать  

14-09-2015 13:58 Райский коттедж Скачать торрент  


Райский коттедж / Eden Lodge


ИНФОРМАЦИЯ:
Год выпуска:2015
Страна: Великобритания
Жанр: ужасы, триллер, детектив
Продолжительность: 01:20:33
Перевод: Любительский (двухголосый)[2D]
Режиссер: Andreas Prodromou

В Ролях:


Джорджина Блакледж (Nancy Craven), Сид Касадос (Rachel Adams), Айви Корбин (Laurie Carpenter), Элли Дикенс (Mrs. Wilkes), Бен Гарднер Грэй (Adam Michaels), Georgio Costa Houtris (Alfie Michaels), Джеймс Киллин (David Wilkes), Эгги Кукавка (Pomona), Гарри Мэннион (Robert Cady), Эндрю МакДональд (Frank Wiley, слухи), Джейк Ансуорт (Aaron Boyle)

Описание:
Молодая семья отправляется на озерный коттедж. Однако им по случайности встречаются молодые подростки, которые начинают убивать одного за другим. И они должны будут бороться, чтобы спасти свой ​​брак, свою семью, и самое ценное - их жизни.

  • Мировая премьера:31 августа 2015

    ТЕХ.ДАННЫЕ:
    Качество: DVDRip
    Формат: AVI
    Видео: XviD, 720x304 (2.35:1), 1974 kbps, 25 fps, 0,361 bpp
    Аудио №1: AC3 / 2.0 / 48 kHz / 192 kbps / 2D
    Аудио №2: AC3 / 2.0 / 48 kHz / 192 kbps / ENG


    General
    Complete name : D:\Торенты\Райский коттедж.avi
    Format : AVI
    Format/Info : Audio Video Interleave
    File size : 1.39 GiB
    Duration : 1h 20mn
    Overall bit rate : 2 467 Kbps

    Video
    ID : 0
    Format : MPEG-4 Visual
    Format profile : Advanced Simple@L5
    Format settings, BVOP : 2
    Format settings, QPel : No
    Format settings, GMC : No warppoints
    Format settings, Matrix : Default (MPEG)
    Codec ID : XVID
    Codec ID/Hint : XviD
    Duration : 1h 20mn
    Bit rate : 1 974 Kbps
    Width : 720 pixels
    Height : 304 pixels
    Display aspect ratio : 2.35:1
    Frame rate : 25.000 fps
    Color space : YUV
    Chroma subsampling : 4:2:0
    Bit depth : 8 bits
    Scan type : Progressive
    Compression mode : Lossy
    Bits/(Pixel*Frame) : 0.361
    Stream size : 1.11 GiB (80%)
    Writing library : XviD 64

    Audio #1
    ID : 1
    Format : AC-3
    Format/Info : Audio Coding 3
    Mode extension : CM (complete main)
    Codec ID : 2000
    Duration : 1h 20mn
    Bit rate mode : Constant
    Bit rate : 192 Kbps
    Channel(s) : 2 channels
    Channel positions : Front: L R
    Sampling rate : 48.0 KHz
    Bit depth : 16 bits
    Compression mode : Lossy
    Stream size : 111 MiB (8%)
    Alignment : Aligned on interleaves

    Audio #2
    ID : 2
    Format : AC-3
    Format/Info : Audio Coding 3
    Mode extension : CM (complete main)
    Codec ID : 2000
    Duration : 1h 20mn
    Bit rate mode : Constant
    Bit rate : 192 Kbps
    Channel(s) : 2 channels
    Channel positions : Front: L R
    Sampling rate : 48.0 KHz
    Bit depth : 16 bits
    Compression mode : Lossy
    Stream size : 111 MiB (8%)
    Alignment : Aligned on interleaves
    Скриншоты:


    © Оформление by Ворон
    piratbit.pw



  • Скачать Райский коттедж через торрент http://pic.kartinco.top/images/6/ordi9.jpg Скачать фильм Райский коттедж через торрент бесплантно в хорошем качестве Описание: Молодая семья отправляется на озерный коттедж. Однако им по случайности встречаются молодые подростки, которые начинают убивать ... 7.6 10 10
    Торрент: Зарегистрирован [2015-09-14 13:58] · скачан: 335 раз
    Статус: T временная
    Размер: 1.39 GB
    Как cкачать? Как скачать Райский коттедж через торрент | qTorrent


    >> Регистрируемся здесь <<






    Отзывы и комментарии о схеме читаем и пишем здесь: ---> Отзывы и комментарии о схеме

    Новые благодарочки в телеграм довольных пользователей:
    скриншот   скриншот   скриншот   скриншот   скриншот

    16-09-2015 14:23 Райский коттедж Скачать торрент  

    Как фильм, стоит потраченного на него времени?, кто заценил, отпишитесь. :snooze:piratbit.pw



    21-03-2016 13:27 Райский коттедж Скачать торрент  

    Судя по описанию, нет. Волчий ручей лучше посмотриpiratbit.pw



      Дорогой пользователь! Огромная просьба, поблагодарите релизера, оцените раздачу и оставьте свои комментарий, если Вы скачали Райский коттедж через торрент бесплатно! Внесите свою лепту в развитие PiratBit!
      Комментировать посты могут только пользователи прошедшие не сложную регистрацию
      Показать сообщения:    

      Райский коттедж через торрент
      Скачать бесплатно Райский коттедж
      Райский коттедж скачать торрент
      Райский коттедж смотреть онлайн
      Cкачать фильм Райский коттедж бесплатно
      Райский коттедж скачать торрент в хорошем качестве
      Райский коттедж смотреть онлайн бесплатно в хорошем качестве


      Вы не можете начинать темы
      Вы не можете отвечать на сообщения
      Вы не можете редактировать свои сообщения
      Вы не можете удалять свои сообщения
      Вы не можете голосовать в опросах
      Вы не можете прикреплять файлы к сообщениям
      Вы можете скачивать файлы