Marvel's Avengers Deluxe Edition (супер цена) 159р. Внимание количество ограничено!!!

2 сезон

iTunes

iTunes

1

iTunes

iTunes

iTunes

WEBRip

iTunes

30
pack

Новость дня

ВАЖНО

!!Акция!!

Alien_RageХит недели

RePack

Horizon Zero Dawn

ИГРА 18+

pack

RePack

jed

!!Акция!!

Alien_Rage

RePack

fifa19

RePack

Assassins Creed: Odyssey

RePack

NEED FOR SPEED™ PAYBACK

4 сезон

9 сезон

Бесстыжие 9 сезон

Все сериалы

все сериалы на PB.wtf

RePack

FAR CRY 5
  

Приключения Шерлока Холмса и доктора Ватсона: Собака Баскервилей (Игорь Масленников) [1981 г., криминал, детектив, BDRip 1080p] piratbit.pw

Приключения Шерлока Холмса и доктора Ватсона: Собака Баскервилей через торрент piratbit.pw

Размер: 15.42 GB | Добавлен: 5 лет назад | Торрент скачан:44 раза
Скачать  

09-09-2015 12:26 Приключения Шерлока Холмса и доктора Ватсона: Собака Баскервилей Скачать торрент  

Приключения Шерлока Холмса и доктора Ватсона: Собака Баскервилей (ТВ)

Год выхода: 1981
Жанр: криминал, детектив

Страна: СССР
Продолжительность: 01:16:57 + 01:15:31
Перевод: Не требуется
Режиссер: Игорь Масленников
В ролях:
Василий Ливанов (Шерлок Холмс), Виталий Соломин (доктор Ватсон), Рина Зеленая (миссис Хадсон), Ирина Купченко (Бэрил Степлтон), Никита Михалков (сэр Генри Баскервиль), Алла Демидова (миссис Лора Лайонс), Светлана Крючкова (Эльза Бэрримор, жена Бэрримора, экономка сэра Генри), Александр Адабашьян (Джон Бэрримор, дворецкий сэра Генри), Борислав Брондуков (инспектор Лестрейд), Евгений Стеблов (доктор Мортимер), Олег Янковский (Джек Стэплтон), Олег Белов
Описание:
Труп Чарльза Баскервиля обнаруживают неподалеку от его родового поместья. Выражение нечеловеческого ужаса на лице покойника и следы крупной собаки поблизости заставляют вспомнить старинную легенду о проклятии, тяготеющем над родом Баскервилей. Шерлоку Холмсу предстоит докопаться до истины...

Качество: BDRip 1080p
Формат: MKV
Видео кодек: AVC
Аудио кодек: AC3
Видео: AVC, 1920x1080 (16:9), 13734 kbps, 23,976 fps, 0,276 bpp
Аудио: русский / AC3 / 5.1 / 48 kHz / 448 kbps / 16 bit
Релиз от: smolnik0ff

Код:

Общее
Уникальный идентификатор                 : 184776573968473827601848006053518729976 (0x8B02AC767874022CAC825B7A650162F8)
Полное имя                               : H:\Собачник\Шерлок Холмс и доктор Ватсон. Собака Баскервилей _1серия.mkv
Формат                                   : Matroska
Версия формата                           : Version 4 / Version 2
Размер файла                             : 7,78 Гбайт
Продолжительность                        : 1 ч. 16 м.
Режим общего битрейта                    : Переменный
Общий поток                              : 14,5 Мбит/сек
Дата кодирования                         : UTC 2015-09-09 11:46:22
Программа кодирования                    : mkvmerge v7.2.0 ('On Every Street') 64bit built on Sep 13 2014 15:52:10
Библиотека кодирования                   : libebml v1.3.0 + libmatroska v1.4.1
Attachements                             : cover.jpg

Видео
Идентификатор                            : 1
Формат                                   : AVC
Формат/Информация                        : Advanced Video Codec
Профиль формата                          : Main@L4.1
Параметр CABAC формата                   : Да
Параметр ReFrames формата                : 1 кадр
Параметр GOP формата                     : M=1, N=15
Идентификатор кодека                     : V_MPEG4/ISO/AVC
Вид битрейта                             : Переменный
Битрейт                                  : 13,7 Мбит/сек
Максимальный битрейт                     : 40,0 Мбит/сек
Ширина                                   : 1920 пикселей
Высота                                   : 1080 пикселей
Соотношение сторон                       : 16:9
Режим частоты кадров                     : Переменный
Частота кадров в оригинале               : 23,976 кадра/сек
Цветовое пространство                    : YUV
Субдискретизация насыщенности            : 4:2:0
Битовая глубина                          : 8 бит
Тип развёртки                            : Прогрессивная
Заголовок                                : Видео: AVC, 1496x1080, 14.5 Mbps 23,976 fps
Язык                                     : Russian
Default                                  : Да
Forced                                   : Нет
DURATION                                 : 01:16:57.989000000
NUMBER_OF_FRAMES                         : 110720
NUMBER_OF_BYTES                          : 8092748780
_STATISTICS_WRITING_APP                  : mkvmerge v7.2.0 ('On Every Street') 64bit built on Sep 13 2014 15:52:10
_STATISTICS_WRITING_DATE_UTC             : 2015-09-09 11:46:22
_STATISTICS_TAGS                         : BPS DURATION NUMBER_OF_FRAMES NUMBER_OF_BYTES

Аудио
Идентификатор                            : 2
Формат                                   : AC-3
Формат/Информация                        : Audio Coding 3
Расширение режима                        : CM (complete main)
Параметр Endianness формата              : Big
Идентификатор кодека                     : A_AC3
Продолжительность                        : 1 ч. 16 м.
Вид битрейта                             : Постоянный
Битрейт                                  : 448 Кбит/сек
Каналы                                   : 6 каналов
Расположение каналов                     : Front: L C R, Side: L R, LFE
Частота                                  : 48,0 КГц
Метод сжатия                             : С потерями
Размер потока                            : 247 Мбайт (3%)
Заголовок                                : Dolby AC3 48000Hz 6ch 4608kbps [Audio]
Язык                                     : Russian
Default                                  : Да
Forced                                   : Нет
DURATION                                 : 01:16:57.952000000
NUMBER_OF_FRAMES                         : 144311
NUMBER_OF_BYTES                          : 258605312
_STATISTICS_WRITING_APP                  : mkvmerge v7.2.0 ('On Every Street') 64bit built on Sep 13 2014 15:52:10
_STATISTICS_WRITING_DATE_UTC             : 2015-09-09 11:46:22
_STATISTICS_TAGS                         : BPS DURATION NUMBER_OF_FRAMES NUMBER_OF_BYTES

Код:

Общее
Уникальный идентификатор                 : 209170977491540720318691249322445223179 (0x9D5CDD6A66283799B07505078FCBB50B)
Полное имя                               : H:\Собачник\Шерлок Холмс и доктор Ватсон. Собака Баскервилей _2серия.mkv
Формат                                   : Matroska
Версия формата                           : Version 4 / Version 2
Размер файла                             : 7,64 Гбайт
Продолжительность                        : 1 ч. 15 м.
Режим общего битрейта                    : Переменный
Общий поток                              : 14,5 Мбит/сек
Дата кодирования                         : UTC 2015-09-09 11:55:10
Программа кодирования                    : mkvmerge v7.2.0 ('On Every Street') 64bit built on Sep 13 2014 15:52:10
Библиотека кодирования                   : libebml v1.3.0 + libmatroska v1.4.1
Attachements                             : cover.jpg

Видео
Идентификатор                            : 1
Формат                                   : AVC
Формат/Информация                        : Advanced Video Codec
Профиль формата                          : Main@L4.1
Параметр CABAC формата                   : Да
Параметр ReFrames формата                : 1 кадр
Параметр GOP формата                     : M=1, N=15
Идентификатор кодека                     : V_MPEG4/ISO/AVC
Вид битрейта                             : Переменный
Битрейт                                  : 13,7 Мбит/сек
Максимальный битрейт                     : 40,0 Мбит/сек
Ширина                                   : 1920 пикселей
Высота                                   : 1080 пикселей
Соотношение сторон                       : 16:9
Режим частоты кадров                     : Переменный
Частота кадров в оригинале               : 23,976 кадра/сек
Цветовое пространство                    : YUV
Субдискретизация насыщенности            : 4:2:0
Битовая глубина                          : 8 бит
Тип развёртки                            : Прогрессивная
Язык                                     : Russian
Default                                  : Да
Forced                                   : Нет
DURATION                                 : 01:15:31.694000000
NUMBER_OF_FRAMES                         : 108651
NUMBER_OF_BYTES                          : 7945264831
_STATISTICS_WRITING_APP                  : mkvmerge v7.2.0 ('On Every Street') 64bit built on Sep 13 2014 15:52:10
_STATISTICS_WRITING_DATE_UTC             : 2015-09-09 11:55:10
_STATISTICS_TAGS                         : BPS DURATION NUMBER_OF_FRAMES NUMBER_OF_BYTES

Аудио
Идентификатор                            : 2
Формат                                   : AC-3
Формат/Информация                        : Audio Coding 3
Расширение режима                        : CM (complete main)
Параметр Endianness формата              : Big
Идентификатор кодека                     : A_AC3
Продолжительность                        : 1 ч. 15 м.
Вид битрейта                             : Постоянный
Битрейт                                  : 448 Кбит/сек
Каналы                                   : 6 каналов
Расположение каналов                     : Front: L C R, Side: L R, LFE
Частота                                  : 48,0 КГц
Метод сжатия                             : С потерями
Размер потока                            : 242 Мбайт (3%)
Заголовок                                : Dolby AC3 48000Hz 6ch 4608kbps [Audio]
Язык                                     : Russian
Default                                  : Да
Forced                                   : Нет
DURATION                                 : 01:15:31.680000000
NUMBER_OF_FRAMES                         : 141615
NUMBER_OF_BYTES                          : 253774080
_STATISTICS_WRITING_APP                  : mkvmerge v7.2.0 ('On Every Street') 64bit built on Sep 13 2014 15:52:10
_STATISTICS_WRITING_DATE_UTC             : 2015-09-09 11:55:10
_STATISTICS_TAGS                         : BPS DURATION NUMBER_OF_FRAMES NUMBER_OF_BYTES

piratbit.pw



Скачать Приключения Шерлока Холмса и доктора Ватсона: Собака Баскервилей через торрент http://i71.fastpic.ru/big/2015/0910/4c/f4b5c338d5ac352848df1257abcca44c.jpg Скачать фильм Приключения Шерлока Холмса и доктора Ватсона: Собака Баскервилей через торрент бесплантно в хорошем качестве Описание: Труп Чарльза Баскервиля обнаруживают неподалеку от его родового поместья. Выражение нечеловеческого ужаса на лице покойника и ... 10 10 13
Торрент: Зарегистрирован [2015-09-09 12:26] · скачан: 44 раз
Статус: # сомнительно
Размер: 15.42 GB
Как cкачать? Как скачать Приключения Шерлока Холмса и доктора Ватсона: Собака Баскервилей через торрент | qTorrent



Последний раз редактировалось: smolnik0ff (2015-09-10 16:11), всего редактировалось 1 раз

28-11-2019 20:33  

Отключить всю рекламу на сайте

09-09-2015 13:25 Приключения Шерлока Холмса и доктора Ватсона: Собака Баскервилей Скачать торрент  

криминал))))) скорее приключения.
лучшая экранизация рассказов, а Собака Баскервилей вообще угар, Михалков и Соломин жгли не по детски)))piratbit.pw



09-09-2015 18:46 Приключения Шерлока Холмса и доктора Ватсона: Собака Баскервилей Скачать торрент  

MalekUA, +100500!
С учётом реалистичности и натурализма в современном кино, да, точно, скорее приключения )))))
Автору Спасибо за релиз.piratbit.pw



09-09-2015 19:21 Приключения Шерлока Холмса и доктора Ватсона: Собака Баскервилей Скачать торрент  

)) это КиноПоиск выдал автоматически (криминал) - ну можно исправить конечно !)) Но я бы добавил ещё к написанному и элементы комедии, там они по всюдуpiratbit.pw



10-09-2015 10:31 Приключения Шерлока Холмса и доктора Ватсона: Собака Баскервилей Скачать торрент  

smolnik0ff,
Оформите релиз в сооответствии с Правилами оформления раздач в разделе «Фильмов»
1. Укажите длительность фильма в формате чч:мм:сс (или длительность каждой серии в том же формате).
2. Проверьте внимательно описание (страна, бюджет и др.), при заполнении желательно использовать информацию КиноПоиска.
3. Добавьте под спойлер отчет MediaInfo по каждой серии.
Как получить информацию по видеофайлу (отчёт MediaInfo) (Жмите)
Дополнительные требования для всех релизов кинопроката , Видео и ТВ (отчёт MediaInfo) (Жмите)
4. Поправьте технические данные о файлах, заполните в соответствии с п.п. 12-12.14 Правил, при заполнении тех. данных учитывайте информацию MediaInfo.




Когда исправите оформление, или если есть вопросы, пишите мне в л/с.

Учитывая, что это Ваш первый релиз на трекере, поправил оформление.
Посмотрите код оформления, в качестве примера на будущее .
Но, статус раздачи, в любом случае, # - Сомнительно, в связи с отсутствием кропа (не обрезаны черные полосы), а также отсутствием настроек кодирования в отчетах MediaInfo.piratbit.pw



    Дорогой пользователь! Огромная просьба, поблагодарите релизера, оцените раздачу и оставьте свои комментарий, если Вы скачали Приключения Шерлока Холмса и доктора Ватсона: Собака Баскервилей через торрент бесплатно! Внесите свою лепту в развитие PiratBit!
    Комментировать посты могут только пользователи прошедшие не сложную регистрацию
    Показать сообщения:    

    Приключения Шерлока Холмса и доктора Ватсона: Собака Баскервилей через торрент
    Скачать бесплатно Приключения Шерлока Холмса и доктора Ватсона: Собака Баскервилей
    Приключения Шерлока Холмса и доктора Ватсона: Собака Баскервилей скачать торрент
    Приключения Шерлока Холмса и доктора Ватсона: Собака Баскервилей смотреть онлайн
    Cкачать фильм Приключения Шерлока Холмса и доктора Ватсона: Собака Баскервилей бесплатно
    Приключения Шерлока Холмса и доктора Ватсона: Собака Баскервилей скачать торрент в хорошем качестве
    Приключения Шерлока Холмса и доктора Ватсона: Собака Баскервилей смотреть онлайн бесплатно в хорошем качестве


    Вы не можете начинать темы
    Вы не можете отвечать на сообщения
    Вы не можете редактировать свои сообщения
    Вы не можете удалять свои сообщения
    Вы не можете голосовать в опросах
    Вы не можете прикреплять файлы к сообщениям
    Вы можете скачивать файлы