Мега распродажа FORZA HORIZON 4 ULTIMATE+ВСЕ DLC+ОНЛАЙН всего за 499р. 349 руб. (супер цена). Внимание количество ограничено!!!

Лицензия

30

iTunes

мы

iTunes

1

1 сезон

Чернобыль

1 сезон

Ральф против интернета

MVO

Покемон. Детектив Пикачу

8 сезон

Игра престолов

iTunes

1+1

ИГРА 18+

pack

ВАЖНО

!!Акция!!

Alien_RageХит недели

RePack

Resident Evil 21
pack

RePack

Metro:Exodus

!!Акция!!

Alien_Rage

RePack

fifa19

RePack

Assassins Creed: Odyssey

RePack

NEED FOR SPEED™ PAYBACK

3 сезон

9 сезон

Бесстыжие 9 сезон

Все сериалы

все сериалы на PB.wtf

RePack

FAR CRY 5
Ребята, катастрофически не хватает 2730р. для оплаты серверов за МАЙ (всвязи с блокировками трафик упал в 3 раза), 1-2р., выручайте.
  

Соседка / The Girl Next Door (Люк Гринфилд) [2004, мелодрама, комедия, BDRip] / Расширенная версия| Дубляж piratbit.pw

Соседка через торрент piratbit.pw

Раздают: 1 [ 0 KB/s ]
Размер: 2.18 GB | Добавлен: 2 года 3 мес. назад | Торрент скачан:100 раз
Скачать  

06-07-2010 16:30 Соседка Скачать торрент  

Соседка / The Girl Next Door

Год выпуска: 2004
Страна: США
Жанр: мелодрама, комедия

Продолжительность: 01:49:28
Перевод: Дубляж
Режиссер: Люк Гринфилд
В ролях:

Эмиль Хирш (Matthew Kidman), Элиша Катберт (Danielle), Тимоти Олифант (Kelly), Джеймс Римар (Hugo Posh), Крис Маркетт (Eli), Пол Дано (Klitz), Тимоти Боттомс (Mr. Kidman), Донна Баллок (Mrs. Kidman), Джейкоб Янг (Hunter), Брайан Колодзей (Derek), Брэндон Айронс (Troy), Аманда Свистен (April)
Описание:
Старшеклассник Меттью, мечтая о карьере политика, между тем обнаруживает, что у него появилась новая соседка, неотразимая 19-летняя блондинка Дениэль. Цветочно-конфетная стадия пролетает мимолетно, и вот уже ослепленной любовью Меттью уверен, что он нашел женщину всей своей жизни.
Рейтинг:

MPAA: R - Лицам до 17 лет обязательно присутствие взрослого
Качество: BDRip
Формат: AVI
Видео: XviD, 704x384 (1.85:1), 1837 kbps, 23,976 fps, 0,283 bpp
Аудио №1: AC3 / 5.1 / 48 kHz / 448 kbps / - русский
Аудио №2: AC3 / 5.1 / 48 kHz / 448 kbps / - английский
Релиз от: HQ-ViDEO
General
Complete name : E:\Sosedka.2004.Unrated.DUAL.BDRip.XviD.AC3.-HQ-ViDEO.avi
Format : AVI
Format/Info : Audio Video Interleave
File size : 2.18 GiB
Duration : 1 h 49 min
Overall bit rate : 2 857 kb/s
Movie name : Sosedka / 2004
Director : Vaippp
Genre : Comedy/Romance
Writing application : VirtualDubModRus 1.5.10.2 (build 2542/release)
Original source form/Name : Movie
Copyright : HQ-ViDEO
Comment : BDRip 21/08/2011

Video
ID : 0
Format : MPEG-4 Visual
Format profile : Advanced Simple@L5
Format settings, BVOP : 1
Format settings, QPel : No
Format settings, GMC : No warppoints
Format settings, Matrix : Custom
Codec ID : XVID
Codec ID/Hint : XviD
Duration : 1 h 49 min
Bit rate : 1 837 kb/s
Width : 704 pixels
Height : 384 pixels
Display aspect ratio : 1.85:1
Frame rate : 23.976 (23976/1000) FPS
Color space : YUV
Chroma subsampling : 4:2:0
Bit depth : 8 bits
Scan type : Progressive
Compression mode : Lossy
Bits/(Pixel*Frame) : 0.283
Stream size : 1.40 GiB (64%)
Writing library : XviD 64

Audio #1
ID : 1
Format : AC-3
Format/Info : Audio Coding 3
Mode extension : CM (complete main)
Format settings, Endianness : Big
Codec ID : 2000
Duration : 1 h 49 min
Bit rate mode : Constant
Bit rate : 448 kb/s
Channel(s) : 6 channels
Channel positions : Front: L C R, Side: L R, LFE
Sampling rate : 48.0 kHz
Frame rate : 31.250 FPS (1536 spf)
Compression mode : Lossy
Stream size : 351 MiB (16%)
Alignment : Split accross interleaves

Audio #2
ID : 2
Format : AC-3
Format/Info : Audio Coding 3
Mode extension : CM (complete main)
Format settings, Endianness : Big
Codec ID : 2000
Duration : 1 h 49 min
Bit rate mode : Constant
Bit rate : 448 kb/s
Channel(s) : 6 channels
Channel positions : Front: L C R, Side: L R, LFE
Sampling rate : 48.0 kHz
Frame rate : 31.250 FPS (1536 spf)
Compression mode : Lossy
Stream size : 351 MiB (16%)
Alignment : Split accross interleaves
piratbit.pw



Скачать Соседка через торрент http://i2.imageban.ru/out/2017/03/12/118bca31cbbd163f5f3aede87d55c5a2.jpg Скачать фильм Соседка через торрент бесплантно в хорошем качестве Описание: Старшеклассник Меттью, мечтая о карьере политика, между тем обнаруживает, что у него появилась новая соседка, неотразимая ... 7.8 10 4
Торрент: Зарегистрирован [2017-03-12 10:26] · скачан: 100 раз
Статус: √ проверено
Размер: 2.18 GB
Как cкачать? Как скачать Соседка через торрент | qTorrent



Последний раз редактировалось: MoNaZ (2010-07-10 07:00), всего редактировалось 1 раз


>> Регистрируемся здесь <<






Отзывы и комментарии о схеме читаем и пишем здесь: ---> Отзывы и комментарии о схеме

Новые благодарочки в телеграм довольных пользователей:
скриншот   скриншот   скриншот   скриншот   скриншот

09-07-2010 20:58 Соседка Скачать торрент  

Убери с постера рекламу!!!piratbit.pw



10-07-2010 07:02 Соседка Скачать торрент  

Earl писал(а):

Убери с постера рекламу!!!

Убрал!!piratbit.pw



27-11-2010 21:00 Соседка Скачать торрент  

Где сидеры?piratbit.pw



28-11-2010 13:43 Соседка Скачать торрент  

любопытная комедияpiratbit.pw



12-01-2015 16:44 Соседка Скачать торрент  

дайте раздачу плис)piratbit.pw



    Дорогой пользователь! Огромная просьба, поблагодарите релизера, оцените раздачу и оставьте свои комментарий, если Вы скачали Соседка через торрент бесплатно! Внесите свою лепту в развитие PiratBit!
    Комментировать посты могут только пользователи прошедшие не сложную регистрацию
    Показать сообщения:    

    Соседка через торрент
    Скачать бесплатно Соседка
    Соседка скачать торрент
    Соседка смотреть онлайн
    Cкачать фильм Соседка бесплатно
    Соседка скачать торрент в хорошем качестве
    Соседка смотреть онлайн бесплатно в хорошем качестве


    Вы не можете начинать темы
    Вы не можете отвечать на сообщения
    Вы не можете редактировать свои сообщения
    Вы не можете удалять свои сообщения
    Вы не можете голосовать в опросах
    Вы не можете прикреплять файлы к сообщениям
    Вы можете скачивать файлы