1 сезон

1 сезон

iTunes

1

КиноПоиск HD

Кинопоиск HD

iTunes

13

1 сезон

RePack

30

Новинка

ВАЖНО

ИГРА 18+

pack

RePack

MK11
pack

Легкие деньги

RePack

jed

RePack

fifa19

RePack

RDR2

RePack

NEED FOR SPEED™ PAYBACK

4 сезон

9 сезон

Бесстыжие 9 сезон

Все сериалы

все сериалы на PB.wtf

RePack

FAR CRY 5
  
Magnet ссылка

Темные тайны / Dark Places (Жиль Паке-Бреннер / Gilles Paquet-Brenner) [2015, триллер, драма, детектив, BDRip-AVC от potroks] AVO piratbit.pw

Темные тайны через торрент piratbit.pw

Размер: 2.18 GB | Добавлен: 5 лет 7 мес. назад | Торрент скачан:139 раз
Скачать  

07-09-2015 17:03 Темные тайны Скачать торрент  

Темные тайны / Dark Places
«In 1985, her entire family was murdered. 30 years later, the truth emerges»
Год выпуска: 2015
Страна: Великобритания, Франция, США / Exclusive Media Group, Mandalay Vision....
Жанр: триллер, драма, детектив
Продолжительность: 01:52:28
Перевод: Авторский (одноголосый) [Матвеев Алексей]
Субтитры: русские, английские
Навигация по главам: есть
Режиссер: Жиль Паке-Бреннер / Gilles Paquet-Brenner
В ролях:

Шарлиз Терон (Libby Day), Стерлинг Джеринс (Young Libby Day), Николас Холт (Lyle Wirth), Кристина Хендрикс (Patty Day), Кори Столл (Ben Day), Тай Шеридан (Young Ben Day), Андреа Рот (Diondra), Хлоя Грейс Морец (Young Diondra), Шон Бриджерс (Runner Day), Дж. ЛаРоуз (Trey Teepano), Шэннон Кук-Чун (Young Trey Trepan), Дженнифер Пирс Матус (Diane)
Описание: Двадцать четыре года назад Либби Дэй пережила страшную трагедию : ночью убили ее мать и двух сестер, в преступлении признается виновным ее старший брат - Бэн Дэй, вина которого не была доказана полностью. Спустя время Либби Дэй решает возобновить расследование и узнать все, что произошло в ту роковую ночь. Готова ли она пережить этот кошмар вновь? На что она готова пойти ради правды? И какие ужасы хранят в себе эти темные тайны?

Качество: BDRip-AVC
Формат: MKV
Видео кодек: AVC
Аудио кодек: AC3
Видео: AVC, 1104x460 (2.40:1), 1881 kbps, 24 fps, 0,154 bit/pixel
Аудио №1: AC3 / 5.1 / 48 kHz / 448 kbps / 16 bit | RUS
Аудио №2: AC3 / 5.1 / 48 kHz / 448 kbps / 16 bit | ENG
Релиз группы:
Автор рипа: potroks

Код:

General
Unique ID                                : 251308932077767327919811429636618702301 (0xBD1056FA6246CDE58956D172003DCDDD)
Complete name                            : N:\Триллер\Tyomnyie.Tainy.2015.DUAL.BDRip.x264.-HELLYWOOD.mkv
Format                                   : Matroska
Format version                           : Version 4 / Version 2
File size                                : 2.18 GiB
Duration                                 : 1h 52mn
Overall bit rate                         : 2 779 Kbps
Movie name                               : Dark Places (2015) - HELLYWOOD
Encoded date                             : UTC 2015-09-07 15:27:57
Writing application                      : mkvmerge v5.9.0 ('On The Loose') built on Dec 15 2012 16:39:58
Writing library                          : libebml v1.3.0 + libmatroska v1.4.0

Video
ID                                       : 1
Format                                   : AVC
Format/Info                              : Advanced Video Codec
Format profile                           : High@L4.1
Format settings, CABAC                   : Yes
Format settings, ReFrames                : 10 frames
Codec ID                                 : V_MPEG4/ISO/AVC
Duration                                 : 1h 52mn
Bit rate                                 : 1 881 Kbps
Width                                    : 1 104 pixels
Height                                   : 460 pixels
Display aspect ratio                     : 2.40:1
Frame rate                               : 24.000 fps
Color space                              : YUV
Chroma subsampling                       : 4:2:0
Bit depth                                : 8 bits
Scan type                                : Progressive
Bits/(Pixel*Frame)                       : 0.154
Stream size                              : 1.44 GiB (66%)
Title                                    : potroks
Writing library                          : x264 core 148 r2597M e86f3a1
Encoding settings                        : cabac=1 / ref=10 / deblock=1:-3:-3 / analyse=0x3:0x133 / me=umh / subme=11 / psy=1 / psy_rd=1.00:0.00 / mixed_ref=1 / me_range=56 / chroma_me=1 / trellis=2 / 8x8dct=1 / cqm=0 / deadzone=21,11 / fast_pskip=0 / chroma_qp_offset=-2 / threads=10 / lookahead_threads=2 / sliced_threads=0 / nr=0 / decimate=1 / interlaced=0 / bluray_compat=0 / constrained_intra=0 / bframes=11 / b_pyramid=2 / b_adapt=2 / b_bias=0 / direct=3 / weightb=1 / open_gop=0 / weightp=2 / keyint=250 / keyint_min=23 / scenecut=40 / intra_refresh=0 / rc=2pass / mbtree=0 / bitrate=1881 / ratetol=1.0 / qcomp=0.70 / qpmin=0 / qpmax=69 / qpstep=4 / cplxblur=20.0 / qblur=0.5 / ip_ratio=1.40 / pb_ratio=1.30 / aq=1:0.80
Language                                 : English
Default                                  : Yes
Forced                                   : No
Color primaries                          : BT.709-5, BT.1361, IEC 61966-2-4, SMPTE RP177
Transfer characteristics                 : BT.709-5, BT.1361
Matrix coefficients                      : BT.709-5, BT.1361, IEC 61966-2-4 709, SMPTE RP177

Audio #1
ID                                       : 2
Format                                   : AC-3
Format/Info                              : Audio Coding 3
Mode extension                           : CM (complete main)
Codec ID                                 : A_AC3
Duration                                 : 1h 52mn
Bit rate mode                            : Constant
Bit rate                                 : 448 Kbps
Channel(s)                               : 6 channels
Channel positions                        : Front: L C R, Side: L R, LFE
Sampling rate                            : 48.0 KHz
Bit depth                                : 16 bits
Compression mode                         : Lossy
Stream size                              : 360 MiB (16%)
Title                                    : AVO | DD 5.1 @ 448 kbps - A.Matveev
Language                                 : Russian
Default                                  : Yes
Forced                                   : No

Audio #2
ID                                       : 3
Format                                   : AC-3
Format/Info                              : Audio Coding 3
Mode extension                           : CM (complete main)
Codec ID                                 : A_AC3
Duration                                 : 1h 52mn
Bit rate mode                            : Constant
Bit rate                                 : 448 Kbps
Channel(s)                               : 6 channels
Channel positions                        : Front: L C R, Side: L R, LFE
Sampling rate                            : 48.0 KHz
Bit depth                                : 16 bits
Compression mode                         : Lossy
Stream size                              : 360 MiB (16%)
Title                                    : Original | DD 5.1 @ 448 kbps
Language                                 : English
Default                                  : No
Forced                                   : No

Text #1
ID                                       : 4
Format                                   : UTF-8
Codec ID                                 : S_TEXT/UTF8
Codec ID/Info                            : UTF-8 Plain Text
Language                                 : Russian
Default                                  : No
Forced                                   : No

Text #2
ID                                       : 5
Format                                   : UTF-8
Codec ID                                 : S_TEXT/UTF8
Codec ID/Info                            : UTF-8 Plain Text
Language                                 : English
Default                                  : No
Forced                                   : No

Menu
00:00:00.000                             : en:00:00:00.000
00:10:26.375                             : en:00:10:26.375
00:17:56.333                             : en:00:17:56.333
00:30:34.458                             : en:00:30:34.458
00:41:12.208                             : en:00:41:12.208
00:49:07.667                             : en:00:49:07.667
00:59:29.583                             : en:00:59:29.583
01:10:55.792                             : en:01:10:55.792
01:18:01.458                             : en:01:18:01.458
01:29:52.875                             : en:01:29:52.875
01:38:44.542                             : en:01:38:44.542
01:46:12.000                             : en:01:46:12.000

piratbit.pw



Скачать Темные тайны через торрент http://i69.fastpic.ru/big/2015/0907/bd/5ee086baf73cbbb18dddd8f3d548d4bd.png Скачать фильм Темные тайны через торрент бесплантно в хорошем качестве Описание: Двадцать четыре года назад Либби Дэй пережила страшную трагедию : ночью убили ее мать и двух сестер, в преступлении признается ... 9.8 10 5
Info! Золотая раздача, скачанное не засчитывается.
Торрент: Зарегистрирован [2015-09-07 17:03] · скачан: 139 раз
Статус: √ проверено
Размер: 2.18 GB
Как cкачать? Как скачать Темные тайны через торрент | UTorrent

% Раздел Тема Автор DL S | L
Фильмы с авторской озвучкой [ 1.46 GB ] Темные тайны / Dark Places [2015 BDRip-AVC] AVO potroks Скачать
1 | 0
Фильмы с авторской озвучкой [ 3.34 GB ] Темные тайны / Dark Places [2015 BDRip 720p от _denis_100 / NNNB] AVO _denis_100 Скачать
1 | 0
Фильмы с авторской озвучкой [ 1.41 GB ] Темные тайны / Dark Places [2015 WEB-DLRip] [AVO] killermax2013 Скачать
1 | 0

28-11-2019 20:33  

Отключить всю рекламу на сайте

    Дорогой пользователь! Огромная просьба, поблагодарите релизера, оцените раздачу и оставьте свои комментарий, если Вы скачали Темные тайны через торрент бесплатно! Внесите свою лепту в развитие PiratBit!
    Комментировать посты могут только пользователи прошедшие не сложную регистрацию
    Показать сообщения:    

    Темные тайны через торрент
    Скачать бесплатно Темные тайны
    Темные тайны скачать торрент
    Темные тайны смотреть онлайн
    Cкачать фильм Темные тайны бесплатно
    Темные тайны скачать торрент в хорошем качестве
    Темные тайны смотреть онлайн бесплатно в хорошем качестве


    Вы не можете начинать темы
    Вы не можете отвечать на сообщения
    Вы не можете редактировать свои сообщения
    Вы не можете удалять свои сообщения
    Вы не можете голосовать в опросах
    Вы не можете прикреплять файлы к сообщениям
    Вы можете скачивать файлы