1 сезон

3 сезон

iTunes

1

iTunes

DUB Netflix

iTunes

13

1 сезон

RePack

30

Deluxe

pack

Легкие деньги

ВАЖНО

ИГРА 18+

pack

RePack

MK11

RePack

jed

RePack

fifa19

RePack

RDR2

RePack

NEED FOR SPEED™ PAYBACK

4 сезон

9 сезон

Бесстыжие 9 сезон

Все сериалы

все сериалы на PB.wtf

RePack

FAR CRY 5

Anonymous, доброй ночи, мы не успеваем до 1 числа собрать деньги на оплату серверов, помогите нам пожалуйста в это трудное время. В качестве благодарности мы отключим Вам всю рекламу на сайте (укажите свой ник в строку Ваше имя)!

×
  
Magnet ссылка

Кабинет / Parlor (Девон Даунс) [2014 г., ужасы, WEB-DLRip, Любительский двухголосый "den904 & DeadSno"] piratbit.pw

Кабинет через торрент piratbit.pw

Размер: 709 MB | Добавлен: 5 лет 9 мес. назад | Торрент скачан:101 раз
Скачать  

06-09-2015 18:17 Кабинет Скачать торрент  

Кабинет / Parlor
Год выпуска: 2014
Страна: США, Литва
Жанр: ужасы
Продолжительность: 01:38:45
Перевод: Любительский двухголосый (den904 & DeadSno)

Режиссер: Девон Даунс

IMDB 4.70 (655)


В ролях: Роберт ЛаСардо, Энтони Дель Негро, Сара Фабел, Джордан Джеймс Смит, Тиффани ДеМарко, Клер Гарви, Бет Хамфрис, Джои Фишер, Бен Уэйлен

Описание: Шестеро студентов колледжа отправляются на каникулы в Восточную Европу, но в погоне за весельем они попадают прямиком в лапы татуировщика-садиста, для которого наколки далеко не единственный источник доходов.

Качество: WEB-DLRip
Формат: AVI
Видео кодек: XviD
Аудио кодек: MP3
Видео: 640x264 (2.42:1), 23.976 fps, XviD build 50 ~865 kbps avg, 0.21 bit/pixel
Аудио: 48 kHz, MPEG Layer 3, 2 ch, ~128.00 kbps avg

Общее
Полное имя : F:\кино\Кабинет.2015.L2.WEB-DLRip.avi
Формат : AVI
Формат/Информация : Audio Video Interleave
Размер файла : 709 Мбайт
Продолжительность : 1 ч. 38 м.
Общий поток : 1003 Кбит/сек
Программа кодирования : VirtualDubMod 1.5.10.3 | www.virtualdub-fr.org || (build 2550/release)
Библиотека кодирования : VirtualDubMod build 2550/release

Видео
Идентификатор : 0
Формат : MPEG-4 Visual
Профиль формата : Advanced Simple@L5
Параметр BVOP формата : 2
Параметр QPel формата : Нет
Параметр GMC формата : Без точки перехода
Параметр матрицы формата : Default (H.263)
Идентификатор кодека : XVID
Идентификатор кодека/Подсказка : XviD
Продолжительность : 1 ч. 38 м.
Битрейт : 866 Кбит/сек
Ширина : 640 пикселей
Высота : 264 пикселя
Соотношение сторон : 2,40:1
Частота кадров : 23,976 кадра/сек
Цветовое пространство : YUV
Субдискретизация насыщенности : 4:2:0
Битовая глубина : 8 бит
Тип развёртки : Прогрессивная
Метод сжатия : С потерями
Бит/(Пиксели*Кадры) : 0.214
Размер потока : 612 Мбайт (86%)
Библиотека кодирования : XviD 1.2.1 (UTC 2008-12-04)

Аудио
Идентификатор : 1
Формат : MPEG Audio
Версия формата : Version 1
Профиль формата : Layer 3
Режим : Joint stereo
Расширение режима : MS Stereo
Идентификатор кодека : 55
Идентификатор кодека/Подсказка : MP3
Продолжительность : 1 ч. 38 м.
Вид битрейта : Постоянный
Битрейт : 128 Кбит/сек
Каналы : 2 канала
Частота : 48,0 КГц
Метод сжатия : С потерями
Размер потока : 90,4 Мбайт (13%)
Выравнивание : Соединение по промежуткам
Продолжительность промежутка : 42 мс. (1,00 видеокадр)
Время предзагрузки промежутка : 504 мс.
Библиотека кодирования : LAME3.99r
Настройки программы : -m j -V 4 -q 2 -lowpass 17 -b 128

piratbit.pw



Скачать Кабинет через торрент https://pic1.kartinco.top/images/10/tcny6.jpg Скачать фильм Кабинет через торрент бесплантно в хорошем качестве Описание: Шестеро студентов колледжа отправляются на каникулы в Восточную Европу, но в погоне за весельем они попадают прямиком в лапы ... 10 10 5
Торрент: Зарегистрирован [2015-09-06 18:17] · скачан: 101 раз
Статус: T временная
Размер: 709 MB
Как cкачать? Как скачать Кабинет через торрент | UTorrent

% Раздел Тема Автор DL S | L
T Фильмы (WEB-DL 720p, 1080p) [ 3.16 GB ] Кабинет / Parlor [2015 WEB-DL 720p Любительский [den904 DeadSno] Ворон Скачать
1 | 0

28-11-2019 20:33  

Отключить всю рекламу на сайте

06-09-2015 18:21 Кабинет Скачать торрент  

Сэмпл именно с этого рипа,и ни с каких других, как любит делать один "релизер", рип один сэмпл другой,ужасpiratbit.pw



06-09-2015 19:11 Кабинет Скачать торрент  

coc900, sarcastic в чем собственно ужас? Сэмплы добавляются в основном для оценки звука, а какое качество в рипах начиная от 720 и выше, ясно по тех.данным и скриншотам. Также это не один релизёр делает, а прописано в правилах и так могу делать все. Если Вам это не нравиться то это ваши проблемы. Не вижу в этом ничего критичного)=piratbit.pw



07-09-2015 17:46 Кабинет Скачать торрент  

Ворон, а кто еще так делает?piratbit.pw



12-09-2015 19:14 Кабинет Скачать торрент  

Тогда надо выкладывать только звуковую дорожку. Скачивается быстрее.
Поддерживаю поставленный вопросpiratbit.pw



12-09-2015 19:17 Кабинет Скачать торрент  

coc900, v-manin, Я вообще не понимаю почему такое недовольство. Делайте сами как считаете нужным. В правилах прописано четко как можно и как нельзя, все сделано для того чтоб релизёрам было проще создавать релизы в HD разделе. Поэтому считаю тему закрытой.piratbit.pw



20-11-2015 19:26 Кабинет Скачать торрент  

охрененное киноpiratbit.pw



    Дорогой пользователь! Огромная просьба, поблагодарите релизера, оцените раздачу и оставьте свои комментарий, если Вы скачали Кабинет через торрент бесплатно! Внесите свою лепту в развитие PiratBit!
    Комментировать посты могут только пользователи прошедшие не сложную регистрацию
    Показать сообщения:    

    Кабинет через торрент
    Скачать бесплатно Кабинет
    Кабинет скачать торрент
    Кабинет смотреть онлайн
    Cкачать фильм Кабинет бесплатно
    Кабинет скачать торрент в хорошем качестве
    Кабинет смотреть онлайн бесплатно в хорошем качестве


    Вы не можете начинать темы
    Вы не можете отвечать на сообщения
    Вы не можете редактировать свои сообщения
    Вы не можете удалять свои сообщения
    Вы не можете голосовать в опросах
    Вы не можете прикреплять файлы к сообщениям
    Вы можете скачивать файлы