1 сезон

3 сезон

iTunes

1

iTunes

DUB Netflix

iTunes

13

1 сезон

RePack

30

Deluxe

pack

Легкие деньги

ВАЖНО

ИГРА 18+

pack

RePack

MK11

RePack

jed

RePack

fifa19

RePack

RDR2

RePack

NEED FOR SPEED™ PAYBACK

4 сезон

9 сезон

Бесстыжие 9 сезон

Все сериалы

все сериалы на PB.wtf

RePack

FAR CRY 5

Anonymous, добрый вечер, мы не успеваем до 1 числа собрать деньги на оплату серверов, помогите нам пожалуйста в это трудное время. В качестве благодарности мы отключим Вам всю рекламу на сайте (укажите свой ник в строку Ваше имя)!

×
  
Magnet ссылка

Секретные материалы: Хочу верить / The X-Files: I Want to Believe ( Крис Картер) [2008, фантастика, триллер, драма, детектив, BDRip-AVC от Rulya74 / Режиссерская версия] piratbit.pw

Секретные материалы: Хочу верить через торрент piratbit.pw

Размер: 1.45 GB | Добавлен: 5 лет 9 мес. назад | Торрент скачан:248 раз
Скачать  

06-09-2015 16:36 Секретные материалы: Хочу верить Скачать торрент  

е материалы: Хочу верить / The X Files: I Want to Believe (2008) BDRip-AVC | Режиссерская версия

Информация о фильме

Название: Секретные материалы: Хочу верить

Оригинальное название: The X Files: I Want to Believe

Год выхода: 2008

Страна: США, Канада

Продолжительность: 01:48:08

Перевод: Дублированный, Оригинал (Английский)

Жанр: фантастика, триллер, драма, детектив

Режиссер: Крис Картер

Субтитры: Русские, Английские (отключаемые)

В ролях: Дэвид Духовны, Джиллиан Андерсон, Аманда Пит, Билли Коннолли, Иксзибит, Митч Пилледжи, Каллум Кит Ренни, Адам Годли, Алекс Дьякун, Никки Эйкокс, Фагин Вудкок, Марко Никколи, Кэрри Ручински, Спенсер Мэйби, Вероника Хадрава, Дэннис Крассноголов, Патрик Китинг, Роджер Хорчоу, Стивен Е. Миллер, Ксанта Рэдли, Лорена Гэйл, Донаван Стинсон...

Описание: Пропадает без вести сотрудница ФБР, и последней надеждой её коллег становятся Фокс Малдер и Дана Скалли, бывшие специальные агенты, вынужденно, хотя и по разным причинам, оставившие службу. Единственным человеком, дающим следствию хоть какую-то информацию, является престарелый Джозеф Криссман, в прошлом священник, отбывший наказание за совращение малолетних, который уверяет, что картины совершённых преступлений непроизвольно — «по воле Бога» — возникают в его сознании…

Файл

Качество: BDRip-AVC
Формат: MKV Видео кодек: MPEG-4 AVC Аудио кодек: AC3
Видео: 1024x428 (2,40:1), 23.976 fps, 1536 kbps, 0.146 bit/pixel
Аудио #1: 48 kHz, AC3 Dolby Digital, 2 ch, ~192.00 kbps- Дублированный
Аудио #2: 48 kHz, AC3 Dolby Digital, 2 ch, ~192.00 kbps - Английский

&
Общее

Уникальный идентификатор : 234865618992960633374464077409019268118 (0xB0B1790CDD8330059A9614B31E988C16)

Полное имя : D:The X-Files.I Want to Believe.[Director's Cut].2008.BDRip-AVC.mkv

Формат : Matroska

Версия формата : Version 4 / Version 2

Размер файла : 1,45 Гбайт

Продолжительность : 1 ч. 48 м.

Общий поток : 1923 Кбит/сек

Название фильма : Секретные материалы: Хочу верить / The X-Files: I Want to Believe [Director's Cut] (2008) BDRip-AVC rip by Rulya74

Дата кодирования : UTC 2013-03-07 16:22:15

Программа кодирования : mkvmerge v6.1.0 ('Old Devil') built on Mar 2 2013 14:32:37

Библиотека кодирования : libebml v1.3.0 + libmatroska v1.4.0

Видео

Идентификатор : 1

Формат : AVC

Формат/Информация : Advanced Video Codec

Профиль формата : High@L4.1

Параметр CABAC формата : Да

Параметр ReFrames формата : 12 кадров

Идентификатор кодека : V_MPEG4/ISO/AVC

Продолжительность : 1 ч. 48 м.

Битрейт : 1536 Кбит/сек

Ширина : 1024 пикселя

Высота : 428 пикселей

Соотношение сторон : 2,40:1

Режим частоты кадров : Постоянный

Частота кадров : 23,976 кадра/сек

Цветовое пространство : YUV

Субдискретизация насыщенности : 4:2:0

Битовая глубина : 8 бит

Тип развёртки : Прогрессивная

Бит/(Пиксели*Кадры) : 0.146

Размер потока : 1,13 Гбайт (78%)

Библиотека кодирования : x264 core 130 r2273 b3065e6

Настройки программы : cabac=1 / ref=12 / deblock=1:-3:-3 / analyse=0x3:0x133 / me=umh / subme=11 / psy=1 / psy_rd=1.30:0.16 / mixed_ref=1 / me_range=32 / chroma_me=1 / trellis=2 / 8x8dct=1 / cqm=0 / deadzone=21,11 / fast_pskip=0 / chroma_qp_offset=-3 / threads=10 / lookahead_threads=2 / sliced_threads=0 / nr=0 / decimate=1 / interlaced=0 / bluray_compat=0 / constrained_intra=0 / bframes=11 / b_pyramid=2 / b_adapt=2 / b_bias=0 / direct=3 / weightb=1 / open_gop=0 / weightp=2 / keyint=240 / keyint_min=22 / scenecut=40 / intra_refresh=0 / rc_lookahead=40 / rc=2pass / mbtree=1 / bitrate=1536 / ratetol=1.0 / qcomp=0.60 / qpmin=0 / qpmax=69 / qpstep=4 / cplxblur=20.0 / qblur=0.5 / ip_ratio=1.40 / aq=1:1.00

Default : Да

Forced : Нет

Аудио #1

Идентификатор : 2

Формат : AC-3

Формат/Информация : Audio Coding 3

Расширение режима : CM (complete main)

Параметр Endianness формата : Big

Идентификатор кодека : A_AC3

Продолжительность : 1 ч. 48 м.

Вид битрейта : Постоянный

Битрейт : 192 Кбит/сек

Каналы : 2 канала

Расположение каналов : Front: L R

Частота : 48,0 КГц

Битовая глубина : 16 бит

Метод сжатия : С потерями

Размер потока : 149 Мбайт (10%)

Заголовок : Дублированный

Язык : Russian

Default : Да

Forced : Нет

Аудио #2

Идентификатор : 3

Формат : AC-3

Формат/Информация : Audio Coding 3

Расширение режима : CM (complete main)

Параметр Endianness формата : Big

Идентификатор кодека : A_AC3

Продолжительность : 1 ч. 48 м.

Вид битрейта : Постоянный

Битрейт : 192 Кбит/сек

Каналы : 2 канала

Расположение каналов : Front: L R

Частота : 48,0 КГц

Битовая глубина : 16 бит

Метод сжатия : С потерями

Размер потока : 149 Мбайт (10%)

Заголовок : Оригинал

Язык : English

Default : Нет

Forced : Нет

Текст #1

Идентификатор : 4

Формат : UTF-8

Идентификатор кодека : S_TEXT/UTF8

Идентификатор кодека/Информация : UTF-8 Plain Text

Язык : Russian

Default : Да

Forced : Нет

Текст #2

Идентификатор : 5

Формат : UTF-8

Идентификатор кодека : S_TEXT/UTF8

Идентификатор кодека/Информация : UTF-8 Plain Text

Язык : English

Default : Нет

Forced : Нет
piratbit.pw



Скачать Секретные материалы: Хочу верить через торрент http://3.firepic.org/3/images/2013-03/07/fiz5ic9hrogk.png Скачать фильм Секретные материалы: Хочу верить через торрент бесплантно в хорошем качестве Описание: Пропадает без вести сотрудница ФБР, и последней надеждой её коллег становятся Фокс Малдер и Дана Скалли, бывшие специальные ... 9.9 10 12
Торрент: Зарегистрирован [2015-09-06 16:36] · скачан: 248 раз
Статус: √ проверено
Размер: 1.45 GB
Как cкачать? Как скачать Секретные материалы: Хочу верить через торрент | UTorrent

% Раздел Тема Автор DL S | L
Фильмы с авторской озвучкой [ 1.45 GB ] Секретные материалы: Хочу верить / The X-Files: I Want to Believe [2008 BDRip] [Director's Cut] [AVO] killermax2013 Скачать
2 | 0
Фильмы [HD 720p, 1080p] (Хороший звук DUB, MVO) [ 4.04 GB ] Секретные материалы: Хочу верить / The X-Files: I Want to Believe [2008 BDRip 720p от Leonardo / Режиссерская версия] Ворон Скачать
2 | 0
Фильмы 2006-2008 [ 1.37 GB ] Секретные материалы: Хочу верить  / The X-Files: I Want to Believe [2008 DVDRip] L_E_X Скачать
1 | 0

28-11-2019 20:33  

Отключить всю рекламу на сайте

    Дорогой пользователь! Огромная просьба, поблагодарите релизера, оцените раздачу и оставьте свои комментарий, если Вы скачали Секретные материалы: Хочу верить через торрент бесплатно! Внесите свою лепту в развитие PiratBit!
    Комментировать посты могут только пользователи прошедшие не сложную регистрацию
    Показать сообщения:    

    Секретные материалы: Хочу верить через торрент
    Скачать бесплатно Секретные материалы: Хочу верить
    Секретные материалы: Хочу верить скачать торрент
    Секретные материалы: Хочу верить смотреть онлайн
    Cкачать фильм Секретные материалы: Хочу верить бесплатно
    Секретные материалы: Хочу верить скачать торрент в хорошем качестве
    Секретные материалы: Хочу верить смотреть онлайн бесплатно в хорошем качестве


    Вы не можете начинать темы
    Вы не можете отвечать на сообщения
    Вы не можете редактировать свои сообщения
    Вы не можете удалять свои сообщения
    Вы не можете голосовать в опросах
    Вы не можете прикреплять файлы к сообщениям
    Вы можете скачивать файлы