1 сезон

3 сезон

iTunes

1

iTunes

DUB Netflix

iTunes

13

1 сезон

RePack

30

Deluxe

pack

Легкие деньги

ВАЖНО

ИГРА 18+

pack

RePack

MK11

RePack

jed

RePack

fifa19

RePack

RDR2

RePack

NEED FOR SPEED™ PAYBACK

4 сезон

9 сезон

Бесстыжие 9 сезон

Все сериалы

все сериалы на PB.wtf

RePack

FAR CRY 5

Anonymous, добрый вечер, мы не успеваем до 1 числа собрать деньги на оплату серверов, помогите нам пожалуйста в это трудное время. В качестве благодарности мы отключим Вам всю рекламу на сайте (укажите свой ник в строку Ваше имя)!

×
  
Magnet ссылка

Зомби пираты / Zombie Pirates (Стив Сессионс) [2014, ужасы, WEB-DLRip, Любительский (одноголосый) piratbit.pw

Зомби пираты через торрент piratbit.pw

Размер: 1.37 GB | Добавлен: 5 лет 9 мес. назад | Торрент скачан:50 раз
Скачать  

03-09-2015 17:53 Зомби пираты Скачать торрент  


Зомби пираты / Zombie Pirates
««Rising out of the sea to eat you alive!»»

ИНФОРМАЦИЯ:
Год выпуска:2014
Страна: США
Жанр: ужасы
Продолжительность: 03:05:30
Перевод: Любительский (одноголосый)
Режиссер: Стив Сессионс

В Ролях:


Скарлет Салем (Linda), J.C. Pennylegion (Grant), Денман Пауэрс (Detective Knofke), Эрик Спудик (Captain Lassard), Люсьен Эйсенах (Tatooist / Pirate), Джоди Уайсс (Tattooed Woman), Dawn DuVurger (Karen), Стив Сессионс (Marina Victim), Джейсон Барнс (Pirate), Mary Paulk (Pirate)

Описание:
Бандитка и старый дед решают разжиться серебром пиратского капитана-зомби. Для чего нужно принести пирату ритуальные жертвы - убить пять человек и в полночь скинуть их в море.

  • Мировая премьера:21 января 2014

    ТЕХ.ДАННЫЕ:
    Качество: WEB-DLRip
    Формат: AVI
    Видео кодек: xvid
    Аудио кодек: MP3
    Видео: xvid, 720x400 (16:9), 876 kbps, 29,970 fps, 0,102 bpp
    Аудио: MP3 / 2.0 / 44 kHz / 128 kbps /


    General
    Complete name : D:\Торенты\Zombie_Pirates_2014_WEB-DLRip.avi
    Format : AVI
    Format/Info : Audio Video Interleave
    File size : 1.37 GiB
    Duration : 3h 5mn
    Overall bit rate : 1 055 Kbps
    Writing application : XviD4PSP 6.0 / 54.29.105

    Video
    ID : 0
    Format : xvid
    Codec ID : xvid
    Duration : 3h 5mn
    Bit rate : 877 Kbps
    Width : 720 pixels
    Height : 400 pixels
    Display aspect ratio : 16:9
    Frame rate : 29.970 fps
    Bits/(Pixel*Frame) : 0.102
    Stream size : 1.14 GiB (83%)

    Audio
    ID : 1
    Format : MPEG Audio
    Format version : Version 1
    Format profile : Layer 3
    Mode : Joint stereo
    Codec ID : 55
    Codec ID/Hint : MP3
    Duration : 3h 5mn
    Bit rate mode : Constant
    Bit rate : 128 Kbps
    Channel(s) : 2 channels
    Sampling rate : 44.1 KHz
    Compression mode : Lossy
    Stream size : 170 MiB (12%)
    Alignment : Aligned on interleaves
    Writing library : LAME3.99.4UUUUU2‘1R
    Скриншоты:


    © Оформление by Ворон
    piratbit.pw



  • Скачать Зомби пираты через торрент https://pic1.kartinco.top/images/61/ordi9.jpg Скачать фильм Зомби пираты через торрент бесплантно в хорошем качестве Описание: Бандитка и старый дед решают разжиться серебром пиратского капитана-зомби. Для чего нужно принести пирату ритуальные жертвы - ... 10 10 3
    Торрент: Зарегистрирован [2015-09-03 17:53] · скачан: 50 раз
    Статус: T временная
    Размер: 1.37 GB
    Как cкачать? Как скачать Зомби пираты через торрент | UTorrent

    28-11-2019 20:33  

    Отключить всю рекламу на сайте

      Дорогой пользователь! Огромная просьба, поблагодарите релизера, оцените раздачу и оставьте свои комментарий, если Вы скачали Зомби пираты через торрент бесплатно! Внесите свою лепту в развитие PiratBit!
      Комментировать посты могут только пользователи прошедшие не сложную регистрацию
      Показать сообщения:    

      Зомби пираты через торрент
      Скачать бесплатно Зомби пираты
      Зомби пираты скачать торрент
      Зомби пираты смотреть онлайн
      Cкачать фильм Зомби пираты бесплатно
      Зомби пираты скачать торрент в хорошем качестве
      Зомби пираты смотреть онлайн бесплатно в хорошем качестве


      Вы не можете начинать темы
      Вы не можете отвечать на сообщения
      Вы не можете редактировать свои сообщения
      Вы не можете удалять свои сообщения
      Вы не можете голосовать в опросах
      Вы не можете прикреплять файлы к сообщениям
      Вы можете скачивать файлы