1 сезон

3 сезон

iTunes

1

iTunes

DUB Netflix

iTunes

13

1 сезон

RePack

30

Deluxe

pack

Легкие деньги

ВАЖНО

ИГРА 18+

pack

RePack

MK11

RePack

jed

RePack

fifa19

RePack

RDR2

RePack

NEED FOR SPEED™ PAYBACK

4 сезон

9 сезон

Бесстыжие 9 сезон

Все сериалы

все сериалы на PB.wtf

RePack

FAR CRY 5

Anonymous, доброй ночи, мы не успеваем до 1 числа собрать деньги на оплату серверов, помогите нам пожалуйста в это трудное время. В качестве благодарности мы отключим Вам всю рекламу на сайте (укажите свой ник в строку Ваше имя)!

×
  
Magnet ссылка

Алтергейст / Altergeist (Теди Сарафьян) [2014, ужасы, фантастика, триллер, WEBRip, Любительский (двухголосый) [den904, DeadSno] piratbit.pw

Алтергейст через торрент piratbit.pw

Размер: 1.08 GB | Добавлен: 5 лет 9 мес. назад | Торрент скачан:124 раза
Скачать  

03-09-2015 17:28 Алтергейст Скачать торрент  


Алтергейст / Altergeist
««They're Beautiful...»»

ИНФОРМАЦИЯ:
Год выпуска:2014
Страна: США
Жанр: ужасы, фантастика, триллер
Продолжительность: 01:30:57
Перевод: Любительский (двухголосый) [den904, DeadSno]
Режиссер: Теди Сарафьян

В Ролях:


Кристина Анапау (Theresa), Марк Гапка (Dax), Дэвид Вайдофф (Ashen Till), Линси Годфри (Sarah), Брендан Флетчер (Jason), Алексис Крус (Mike), Сара Ох (Maya), Оливия Стак (Beatrice Blaine), Ричард Сарафьян мл. (Jim till), Джессика Споттс (Rachel Till), Эд Корбин (Henry Blaine), Брук Бонелли (Beauty)

Описание:
В конце 1800-х, женщина переехала в фамильное поместье Алтергейст, на территории которого в прошлом происходили события, наложившие на это место ужасный отпечаток.

  • Мировая премьера:25 августа 2014

    ТЕХ.ДАННЫЕ:
    Качество: WEBRip
    Формат: AVI
    Видео кодек: XviD
    Аудио кодек: AC3, MP3
    Видео: XviD, 640x286 (2.25:1), 1329 kbps, 29,970 fps, 0,242 bpp
    Аудио №1: AC3 / 2.0 / 48 kHz / 192 kbps / 16 bit
    Аудио №2: MP3 / 2.0 / 44 kHz / 96 kbps /


    General
    Complete name : D:\Торенты\Altergeist.2015.L2.WEBRip.1400MB.avi
    Format : AVI
    Format/Info : Audio Video Interleave
    File size : 1.08 GiB
    Duration : 1h 30mn
    Overall bit rate : 1 695 Kbps
    Writing application : VirtualDubMod 1.5.10.2 (build 2540/release)
    Writing library : VirtualDubMod build 2540/release

    Video
    ID : 0
    Format : MPEG-4 Visual
    Format profile : Advanced Simple@L5
    Format settings, BVOP : 2
    Format settings, QPel : No
    Format settings, GMC : No warppoints
    Format settings, Matrix : Default (MPEG)
    Muxing mode : Packed bitstream
    Codec ID : XVID
    Codec ID/Hint : XviD
    Duration : 1h 30mn
    Bit rate : 1 329 Kbps
    Width : 640 pixels
    Height : 286 pixels
    Display aspect ratio : 2.25:1
    Frame rate : 29.970 fps
    Color space : YUV
    Chroma subsampling : 4:2:0
    Bit depth : 8 bits
    Scan type : Progressive
    Compression mode : Lossy
    Bits/(Pixel*Frame) : 0.242
    Stream size : 865 MiB (78%)
    Writing library : XviD 66

    Audio #1
    ID : 1
    Format : AC-3
    Format/Info : Audio Coding 3
    Mode extension : CM (complete main)
    Codec ID : 2000
    Duration : 1h 30mn
    Bit rate mode : Constant
    Bit rate : 192 Kbps
    Channel(s) : 2 channels
    Channel positions : Front: L R
    Sampling rate : 48.0 KHz
    Bit depth : 16 bits
    Compression mode : Lossy
    Stream size : 125 MiB (11%)
    Alignment : Split accross interleaves

    Audio #2
    ID : 2
    Format : MPEG Audio
    Format version : Version 1
    Format profile : Layer 3
    Mode : Joint stereo
    Mode extension : MS Stereo
    Codec ID : 55
    Codec ID/Hint : MP3
    Duration : 1h 30mn
    Bit rate mode : Constant
    Bit rate : 96.0 Kbps
    Channel(s) : 2 channels
    Sampling rate : 44.1 KHz
    Compression mode : Lossy
    Stream size : 62.5 MiB (6%)
    Alignment : Aligned on interleaves
    Writing library : LAME3.98.2
    Скриншоты:


    © Оформление by Ворон
    piratbit.pw



  • Скачать Алтергейст через торрент https://pic1.kartinco.top/images/61/ordi9.jpg Скачать фильм Алтергейст через торрент бесплантно в хорошем качестве Описание: В конце 1800-х, женщина переехала в фамильное поместье Алтергейст, на территории которого в прошлом происходили события, ... 8.8 10 4
    Торрент: Зарегистрирован [2015-09-03 17:28] · скачан: 124 раз
    Статус: T временная
    Размер: 1.08 GB
    Как cкачать? Как скачать Алтергейст через торрент | UTorrent

    28-11-2019 20:33  

    Отключить всю рекламу на сайте

      Дорогой пользователь! Огромная просьба, поблагодарите релизера, оцените раздачу и оставьте свои комментарий, если Вы скачали Алтергейст через торрент бесплатно! Внесите свою лепту в развитие PiratBit!
      Комментировать посты могут только пользователи прошедшие не сложную регистрацию
      Показать сообщения:    

      Алтергейст через торрент
      Скачать бесплатно Алтергейст
      Алтергейст скачать торрент
      Алтергейст смотреть онлайн
      Cкачать фильм Алтергейст бесплатно
      Алтергейст скачать торрент в хорошем качестве
      Алтергейст смотреть онлайн бесплатно в хорошем качестве


      Вы не можете начинать темы
      Вы не можете отвечать на сообщения
      Вы не можете редактировать свои сообщения
      Вы не можете удалять свои сообщения
      Вы не можете голосовать в опросах
      Вы не можете прикреплять файлы к сообщениям
      Вы можете скачивать файлы