1 сезон

3 сезон

iTunes

1

iTunes

DUB Netflix

iTunes

13

1 сезон

RePack

30

Deluxe

pack

Легкие деньги

ВАЖНО

ИГРА 18+

pack

RePack

MK11

RePack

jed

RePack

fifa19

RePack

RDR2

RePack

NEED FOR SPEED™ PAYBACK

4 сезон

9 сезон

Бесстыжие 9 сезон

Все сериалы

все сериалы на PB.wtf

RePack

FAR CRY 5

Anonymous, добрый вечер, мы не успеваем до 1 числа собрать деньги на оплату серверов, помогите нам пожалуйста в это трудное время. В качестве благодарности мы отключим Вам всю рекламу на сайте (укажите свой ник в строку Ваше имя)!

×
  
Magnet ссылка

Жестокое и необычное / Cruel & Unusual (Мерлин Дервисевич) [2014, фантастика, триллер, BDRip, Любительский (одноголосый) [Xixidok] piratbit.pw

Жестокое и необычное через торрент piratbit.pw

Размер: 1.33 GB | Добавлен: 5 лет 9 мес. назад | Торрент скачан:148 раз
Скачать  

03-09-2015 13:57 Жестокое и необычное Скачать торрент  


Жестокое и необычное / Cruel & Unusual


ИНФОРМАЦИЯ:
Год выпуска:2014
Страна: Канада
Жанр: фантастика, триллер
Продолжительность: 01:32:00
Перевод: Любительский (одноголосый) [Xixidok]
Режиссер: Мерлин Дервисевич

В Ролях:


Дэвид Ричмонд-Пек (Edgar), Bernadette Saquibal (Maylon), Мишель Харрисон (Doris), Monsour Cataquiz (Gogan), Кайл Кэсси (Lance), Мэри Блэк (Facilitator), Майкл Эклунд (Julien), Ричард Хэрмон (William), Энди Томпсон (Counselor), Джон Хэйнсуорт (Old Man), Jena Skodje (Rebecca), Джаред Аджер-Фостер (Tyler)

Описание:
Мужчина, несправедливо осужденный за убийство своей жены, оказывается в таинственном учреждении, где ему выносят страшный приговор: проживать день ее смерти снова и снова, и так - целую вечность.

  • Мировая премьера:5 апреля 2014

    ТЕХ.ДАННЫЕ:
    Качество: BDRip
    Формат: AVI
    Видео кодек: XviD
    Аудио кодек: AC3
    Видео: XviD, 720x304 (2.35:1), 1793 kbps, 23,976 fps, 0,342 bpp
    Аудио: AC3 / 2.0 / 48 kHz / 192 kbps / 16 bit


    General
    Complete name : D:\Торенты\Cruel & Unusual.L.2014.avi
    Format : AVI
    Format/Info : Audio Video Interleave
    File size : 1.33 GiB
    Duration : 1h 32mn
    Overall bit rate : 2 076 Kbps
    Writing application : VirtualDubMod 1.5.10.3 | www.virtualdub-fr.org || (build 2550/release)
    Writing library : VirtualDubMod build 2550/release

    Video
    ID : 0
    Format : MPEG-4 Visual
    Format profile : Advanced Simple@L5
    Format settings, BVOP : 1
    Format settings, QPel : No
    Format settings, GMC : No warppoints
    Format settings, Matrix : Default (MPEG)
    Codec ID : XVID
    Codec ID/Hint : XviD
    Duration : 1h 32mn
    Bit rate : 1 793 Kbps
    Width : 720 pixels
    Height : 304 pixels
    Display aspect ratio : 2.35:1
    Frame rate : 23.976 fps
    Color space : YUV
    Chroma subsampling : 4:2:0
    Bit depth : 8 bits
    Scan type : Progressive
    Compression mode : Lossy
    Bits/(Pixel*Frame) : 0.342
    Stream size : 1.15 GiB (86%)
    Writing library : XviD 1.2.1 (UTC 2008-12-04)

    Audio
    ID : 1
    Format : AC-3
    Format/Info : Audio Coding 3
    Mode extension : CM (complete main)
    Codec ID : 2000
    Duration : 1h 32mn
    Bit rate mode : Constant
    Bit rate : 192 Kbps
    Channel(s) : 2 channels
    Channel positions : Front: L R
    Sampling rate : 48.0 KHz
    Bit depth : 16 bits
    Compression mode : Lossy
    Stream size : 126 MiB (9%)
    Alignment : Split accross interleaves
    Скриншоты:


    © Оформление by Ворон
    piratbit.pw



  • Скачать Жестокое и необычное через торрент https://pic1.kartinco.top/images/61/ordi9.jpg Скачать фильм Жестокое и необычное через торрент бесплантно в хорошем качестве Описание: Мужчина, несправедливо осужденный за убийство своей жены, оказывается в таинственном учреждении, где ему выносят страшный ... 9.6 10 10
    Торрент: Зарегистрирован [2015-09-03 13:57] · скачан: 148 раз
    Статус: T временная
    Размер: 1.33 GB
    Как cкачать? Как скачать Жестокое и необычное через торрент | UTorrent

    28-11-2019 20:33  

    Отключить всю рекламу на сайте

    03-09-2015 16:53 Жестокое и необычное Скачать торрент  

    описание интригует-берем-спасибо раздающемуpiratbit.pw



    05-09-2015 09:07 Жестокое и необычное Скачать торрент  

    а озвучиватель отвращает - не берем.piratbit.pw



      Дорогой пользователь! Огромная просьба, поблагодарите релизера, оцените раздачу и оставьте свои комментарий, если Вы скачали Жестокое и необычное через торрент бесплатно! Внесите свою лепту в развитие PiratBit!
      Комментировать посты могут только пользователи прошедшие не сложную регистрацию
      Показать сообщения:    

      Жестокое и необычное через торрент
      Скачать бесплатно Жестокое и необычное
      Жестокое и необычное скачать торрент
      Жестокое и необычное смотреть онлайн
      Cкачать фильм Жестокое и необычное бесплатно
      Жестокое и необычное скачать торрент в хорошем качестве
      Жестокое и необычное смотреть онлайн бесплатно в хорошем качестве


      Вы не можете начинать темы
      Вы не можете отвечать на сообщения
      Вы не можете редактировать свои сообщения
      Вы не можете удалять свои сообщения
      Вы не можете голосовать в опросах
      Вы не можете прикреплять файлы к сообщениям
      Вы можете скачивать файлы