2 сезон

iTunes

1 сезон

1

iTunes

iTunes

iTunes

1 сезон

RePack

30

ИГРА 18+

pack

ВАЖНО

!!Акция!!

Alien_RageХит недели

RePack

MK11
pack

Забери бонус

RePack

jed

!!Акция!!

Alien_Rage

RePack

fifa19

RePack

Assassins Creed: Odyssey

RePack

NEED FOR SPEED™ PAYBACK

4 сезон

9 сезон

Бесстыжие 9 сезон

Все сериалы

все сериалы на PB.wtf

RePack

FAR CRY 5
  

Да и да (Валерия Гай Германика) [2014 г., драма, WEB-DLRip] piratbit.pw

Да и да через торрент piratbit.pw

Размер: 2.16 GB | Добавлен: 5 лет 2 мес. назад | Торрент скачан:110 раз
Скачать  

24-08-2015 18:32 Да и да Скачать торрент  

Да и да
Год выпуска: 2014
Страна: Россия / Art Pictures Studio, WWP Aliance
Жанр: драма
Продолжительность: 01:57:25

Режиссер: Валерия Гай Германика

IMDB 6.00 (64)


В ролях: Агния Кузнецова, Александр Виноградов, Владимир Дубосарский, Александр Горчилин, Оксана Земляникова, Юрий Трубин, Лариса Баранова, Николай Шептулин

Описание: Паренек — начинающий современный художник, девушка — начинающая школьная учительница. Случайное сближение кладет начало горячей и короткой любви. Некрасивая случайность заставляет расстаться. Но однажды увидев мир глазами любимого, учительница вернулась в свой прежний мир художницей, и не может избавиться от нового зрения, от дара живописца: непрошеной памяти о несложившейся любви.

Качество: WEB-DLRip
Формат: AVI
Видео кодек: XviD
Аудио кодек: AC3
Видео: 720x384 (1.88:1), 24.000 fps, XviD build 50 ~2244 kbps avg, 0.34 bit/pixel
Аудио: 48 kHz, AC3 Dolby Digital, 3/2 (L,C,R,l,r) + LFE ch, ~384 kbps

Общее
Полное имя : F:\кино\Да и да.2014.WEB-DLRip.avi
Формат : AVI
Формат/Информация : Audio Video Interleave
Профиль формата : OpenDML
Размер файла : 2,16 Гбайт
Продолжительность : 1 ч. 57 м.
Общий поток : 2636 Кбит/сек
Программа кодирования : VirtualDubMod 1.5.10.3 | www.virtualdub-fr.org || (build 2550/release)
Библиотека кодирования : VirtualDubMod build 2550/release

Видео
Идентификатор : 0
Формат : MPEG-4 Visual
Профиль формата : Advanced Simple@L5
Параметр BVOP формата : 2
Параметр QPel формата : Нет
Параметр GMC формата : Без точки перехода
Параметр матрицы формата : Default (H.263)
Идентификатор кодека : XVID
Идентификатор кодека/Подсказка : XviD
Продолжительность : 1 ч. 57 м.
Битрейт : 2240 Кбит/сек
Ширина : 720 пикселей
Высота : 384 пикселя
Соотношение сторон : 1,85:1
Частота кадров : 24,000 кадра/сек
Цветовое пространство : YUV
Субдискретизация насыщенности : 4:2:0
Битовая глубина : 8 бит
Тип развёртки : Прогрессивная
Метод сжатия : С потерями
Бит/(Пиксели*Кадры) : 0.338
Размер потока : 1,84 Гбайт (85%)
Библиотека кодирования : XviD 1.2.1 (UTC 2008-12-04)

Аудио
Идентификатор : 1
Формат : AC-3
Формат/Информация : Audio Coding 3
Расширение режима : CM (complete main)
Параметр Endianness формата : Big
Идентификатор кодека : 2000
Продолжительность : 1 ч. 57 м.
Вид битрейта : Постоянный
Битрейт : 384 Кбит/сек
Каналы : 6 каналов
Расположение каналов : Front: L C R, Side: L R, LFE
Частота : 48,0 КГц
Метод сжатия : С потерями
Размер потока : 323 Мбайт (15%)
Выравнивание : Разделение по промежуткам
Продолжительность промежутка : 42 мс. (1,00 видеокадр)
Время предзагрузки промежутка : 500 мс.

piratbit.pw



Скачать Да и да через торрент http://pic1.kartinco.top/images/10/nlc5x.jpg Скачать фильм Да и да через торрент бесплантно в хорошем качестве Описание: Паренек — начинающий современный художник, девушка — начинающая школьная учительница. Случайное сближение кладет начало горячей и ... 6.1 10 9
Торрент: Зарегистрирован [2015-08-24 18:32] · скачан: 110 раз
Статус: √ проверено
Размер: 2.16 GB
Как cкачать? Как скачать Да и да через торрент | qTorrent

% Раздел Тема Автор DL S | L
TBS (пошаговые стратегии) [ 1.91 GB ] Герои Меча и Магии 3 / Heroes of Might and Magic 3 [L] Shmel Скачать
1 | 1
TBS (пошаговые стратегии) [ 14.71 GB ] Герои Меча и Магии - Коллекционное издание / Heroes of Might and Magic rus [P] Shmel Скачать
1 | 1
Гоночные симуляторы [ 3.18 GB ] Дальнобойщик​и 3: Золотое Издание [Lossless Repack RU] от R.G. Catalyst roman3310i Скачать
1 | 0
Компьютерные видеоуроки и обучающие интерактивные диски [ 3.94 GB ] Техника программирования на языке Delphi и основы создания графики для программы [2008 Обучающее видео курсы] PokeRmAn Скачать
1 | 0
Фильмы [HD 720p, 1080p] (Хороший звук DUB, MVO) [ 12.66 GB ] Мистер и миссис Смит / Mr. & Mrs. Smith [2005 BDRip] [1080p] Курортник Скачать
1 | 0
Иностранные мультфильмы [ 1.33 GB ] Скуби-Ду! И легенда о вампире / Scooby-Doo! And the Legend of the Vampire [2003 мультфильм DVDRip] Виталий2020 Скачать
1 | 0
Фильмы (DVD фильмы) [ 4.33 GB ] Хроники Нарнии: Лев колдунья и волшебный шкаф / Chronicles of Narnia: The Lion the Witch and the Wardrobe The [2005 ... DVD5] amv77 Скачать
1 | 0

28-11-2019 20:33  

Отключить всю рекламу на сайте

24-08-2015 19:20 Да и да Скачать торрент  

Ерундаpiratbit.pw



24-08-2015 21:45 Да и да Скачать торрент  

vwb6 писал(а):

Ерунда

Да и даpiratbit.pw



25-08-2015 14:12 Да и да Скачать торрент  

Да и да-такого бреда давно не видел, зато наград то сколько. Наверное для жюри только и снимали.piratbit.pw



27-08-2015 14:14 Да и да Скачать торрент  

Откровенно говоря... хренотень.
Пришлось посмотреть, однажды. Как к режиссёру, к Германике вопросов нет. Насчёт культуры и моральных ценностей есть кое какие недочёты, серьёзные или не очень, в зависимости от версии фильма.piratbit.pw



    Дорогой пользователь! Огромная просьба, поблагодарите релизера, оцените раздачу и оставьте свои комментарий, если Вы скачали Да и да через торрент бесплатно! Внесите свою лепту в развитие PiratBit!
    Комментировать посты могут только пользователи прошедшие не сложную регистрацию
    Показать сообщения:    

    Да и да через торрент
    Скачать бесплатно Да и да
    Да и да скачать торрент
    Да и да смотреть онлайн
    Cкачать фильм Да и да бесплатно
    Да и да скачать торрент в хорошем качестве
    Да и да смотреть онлайн бесплатно в хорошем качестве


    Вы не можете начинать темы
    Вы не можете отвечать на сообщения
    Вы не можете редактировать свои сообщения
    Вы не можете удалять свои сообщения
    Вы не можете голосовать в опросах
    Вы не можете прикреплять файлы к сообщениям
    Вы можете скачивать файлы