Ссылка на приватное зеркало нашего сайта всего за 1$. Внимание количество ограничено!!!

2 сезон

iTunes

iTunes

1

iTunes

iTunes

iTunes

WEBRip

iTunes

30
pack

Вам бонус

ВАЖНО

!!Акция!!

Alien_RageХит недели

RePack

Horizon Zero Dawn

ИГРА 18+

pack

RePack

jed

!!Акция!!

Alien_Rage

RePack

fifa19

RePack

Assassins Creed: Odyssey

RePack

NEED FOR SPEED™ PAYBACK

4 сезон

9 сезон

Бесстыжие 9 сезон

Все сериалы

все сериалы на PB.wtf

RePack

FAR CRY 5
  

Рэкетир (Акан Сатаев) [2007 г., боевик, драма, криминал, BDRip 1080p] piratbit.pw

Рэкетир через торрент piratbit.pw

Размер: 8.7 GB | Добавлен: 5 лет 1 мес. назад | Торрент скачан:144 раза
Скачать  

23-08-2015 15:54 Рэкетир Скачать торрент  

Рэкетир
Год выпуска: 2007
Страна: Казахстан, Sataifilm
Жанр: боевик, драма, криминал
Продолжительность: 01:20:16

Режиссер: Акан Сатаев
Продюссер: Акан Сатаев
Сценарий: Тимур Жаксылыков

Бюджет: $800 000
Премьера в мире: 8 ноября 2007

IMDB 7.00 (181)


В ролях: Саят Исембаев, Владимир Вдовиченков, Жан Байжанбаев, Толепберген Байсакалов, Ментай Утепбергенов, Мурат Бисенбин, Алмагуль Рулас, Сакен Аминов, Болат Калымбетов, Асель Сагатова

Описание: Это биографическая история о жизни молодого человека по имени Саян, рассказанная им самим.Когда-то, в начале девяностых он — парень, который родился и вырос в Алма-Ате, подающий большие надежды боксёр, решил, что дорогу в жизнь можно пробить своими кулаками. И вроде все складывалось для него неплохо, даже очень... Но наступает момент, когда он начинает понимать, что назад уже дороги нет, что за всё в жизни оказывается надо платить. Какой ценой — он узнает позже.

Качество: BDRip 1080p
Формат: MKV
Видео кодек: AVC
Аудио кодек: DTS
Видео: MPEG-4 AVC, ~14 Мбит/с, 1920х816(2.35:1), 23,976 кадра/сек
Аудио#1: Русский DTS, 6ch, 1510 Кбит/с, 48.0 КГц, 24 бит
скриншот  скриншот  скриншот  

Общее
Уникальный идентификатор : 221324200765295333005622907091899915832 (0xA6817D95CEF645228B1662E7CED81E38)
Полное имя : E:\Рэкетир.2007.BDRip.1080p.mkv
Формат : Matroska
Версия формата : Version 2
Размер файла : 8,70 Гбайт
Продолжительность : 1 ч. 20 м.
Общий поток : 15,5 Мбит/сек
Название фильма : -=nevermnd=-
Дата кодирования : UTC 2010-11-06 20:01:16
Программа кодирования : mkvmerge v4.3.0 ('Escape from the Island') сборка от Sep 5 2010 10:30:51
Библиотека кодирования : libebml v1.0.0 + libmatroska v1.0.0

Видео
Идентификатор : 1
Формат : AVC
Формат/Информация : Advanced Video Codec
Профиль формата : High@L4.1
Параметр CABAC формата : Да
Параметр ReFrames формата : 4 кадра
Режим смешивания : Header stripping
Идентификатор кодека : V_MPEG4/ISO/AVC
Продолжительность : 1 ч. 20 м.
Битрейт : 14,0 Мбит/сек
Ширина : 1920 пикселей
Высота : 816 пикселей
Соотношение сторон : 2,35:1
Режим частоты кадров : Постоянный
Частота кадров : 23,976 кадра/сек
Цветовое пространство : YUV
Субдискретизация насыщенности : 4:2:0
Битовая глубина : 8 бит
Тип развёртки : Прогрессивная
Бит/(Пиксели*Кадры) : 0.373
Размер потока : 7,68 Гбайт (88%)
Заголовок : nevermnd by 2010-11-06
Библиотека кодирования : x264 core 107 r1745 4785e8e
Настройки программы : cabac=1 / ref=4 / deblock=1:-1:-1 / analyse=0x3:0x113 / me=umh / subme=9 / psy=1 / psy_rd=1.00:0.10 / mixed_ref=1 / me_range=16 / chroma_me=1 / trellis=2 / 8x8dct=1 / cqm=0 / deadzone=21,11 / fast_pskip=0 / chroma_qp_offset=-3 / threads=3 / sliced_threads=0 / nr=0 / decimate=1 / interlaced=0 / constrained_intra=0 / bframes=3 / b_pyramid=2 / b_adapt=2 / b_bias=0 / direct=3 / weightb=1 / open_gop=0 / weightp=2 / keyint=250 / keyint_min=23 / scenecut=40 / intra_refresh=0 / rc_lookahead=40 / rc=2pass / mbtree=1 / bitrate=14006 / ratetol=1.0 / qcomp=0.60 / qpmin=10 / qpmax=51 / qpstep=4 / cplxblur=20.0 / qblur=0.5 / vbv_maxrate=50000 / vbv_bufsize=50000 / ip_ratio=1.40 / aq=1:1.00 / nal_hrd=none
Язык : Russian
Default : Да
Forced : Нет

Аудио
Идентификатор : 2
Формат : DTS
Формат/Информация : Digital Theater Systems
Режим : 16
Параметр Endianness формата : Big
Режим смешивания : Header stripping
Идентификатор кодека : A_DTS
Продолжительность : 1 ч. 20 м.
Вид битрейта : Постоянный
Битрейт : 1510 Кбит/сек
Каналы : 6 каналов
Расположение каналов : Front: L C R, Side: L R, LFE
Частота : 48,0 КГц
Битовая глубина : 24 бит
Метод сжатия : С потерями
Размер потока : 867 Мбайт (10%)
Заголовок : DTS 5.1 1536 kbps
Язык : Russian
Default : Да
Forced : Нет


Рэкетир скачать торрент


piratbit.pw



Скачать Рэкетир через торрент http://pic.kartinco.top/images/11/vxmwa.jpg Скачать фильм Рэкетир через торрент бесплантно в хорошем качестве Описание: Это биографическая история о жизни молодого человека по имени Саян, рассказанная им самим.Когда-то, в начале девяностых он — ... 9.4 10 19
Info! Золотая раздача, скачанное не засчитывается.
Торрент: Зарегистрирован [2015-08-23 15:54] · скачан: 144 раз
Статус: √ проверено
Размер: 8.7 GB
Как cкачать? Как скачать Рэкетир через торрент | qTorrent

% Раздел Тема Автор DL S | L
Наши фильмы (Blu-ray, BD-Remux, HDDVD) [ 8.69 GB ] Рэкетир [2007 BDRip 1080p by msltel] msltel Скачать
1 | 0
Наши фильмы (Blu-ray, BD-Remux, HDDVD) [ 2.98 GB ] Рэкетир [2007 BDRip 720p by msltel] msltel Скачать
1 | 0
T Наши новые фильмы 2015 [ 2.15 GB ] Рэкетир 2 [2015 WEB-DLRip 720p] sanekbest1 Скачать
1 | 0
T Наши новые фильмы 2015 [ 747 MB ] Рэкетир 2 [2015 WEB-DLRip] [Оригинал] killermax2013 Скачать
1 | 0
T Наши новые фильмы 2015 [ 1.37 GB ] Рэкетир 2 [2015 WEBRip] Exelero Скачать
1 | 0
Детективы, Боевики, Триллеры [ 526 MB ] Джон Гришэм - Рэкетир [Валерий Стельмащук 2016 96 kbps MP3] Бумер Скачать
1 | 0
Наши фильмы, до 2010 [ 743 MB ] Рэкетир / Racketeer [2007 ьная BDRip] killermax2013 Скачать
1 | 0

28-11-2019 20:33  

Отключить всю рекламу на сайте

23-08-2015 16:25 Рэкетир Скачать торрент  

норм фильм кто вырос в 90-е - поймётpiratbit.pw



24-08-2015 12:43 Рэкетир Скачать торрент  

Смотрел фильм. Отличный 10/10 баллов,рекомендую. Реально про жизнь и без пафоса со Стэтхемом.piratbit.pw



24-10-2015 12:01 Рэкетир Скачать торрент  

чоткий фильм для чотких пацаноф!!piratbit.pw



22-02-2018 09:11 Рэкетир Скачать торрент  

Офигенный piratbit.pw



    Дорогой пользователь! Огромная просьба, поблагодарите релизера, оцените раздачу и оставьте свои комментарий, если Вы скачали Рэкетир через торрент бесплатно! Внесите свою лепту в развитие PiratBit!
    Комментировать посты могут только пользователи прошедшие не сложную регистрацию
    Показать сообщения:    

    Рэкетир через торрент
    Скачать бесплатно Рэкетир
    Рэкетир скачать торрент
    Рэкетир смотреть онлайн
    Cкачать фильм Рэкетир бесплатно
    Рэкетир скачать торрент в хорошем качестве
    Рэкетир смотреть онлайн бесплатно в хорошем качестве


    Вы не можете начинать темы
    Вы не можете отвечать на сообщения
    Вы не можете редактировать свои сообщения
    Вы не можете удалять свои сообщения
    Вы не можете голосовать в опросах
    Вы не можете прикреплять файлы к сообщениям
    Вы можете скачивать файлы