Ссылка на приватное зеркало нашего сайта всего за 1$. Внимание количество ограничено!!!

2 сезон

iTunes

1 сезон

1

iTunes

iTunes

iTunes

1 сезон

RePack

30

ИГРА 18+

pack

ВАЖНО

!!Акция!!

Alien_RageХит недели

RePack

MK11
pack

Забери бонус

RePack

jed

!!Акция!!

Alien_Rage

RePack

fifa19

RePack

Assassins Creed: Odyssey

RePack

NEED FOR SPEED™ PAYBACK

4 сезон

9 сезон

Бесстыжие 9 сезон

Все сериалы

все сериалы на PB.wtf

RePack

FAR CRY 5
  

Батальонъ (Дмитрий Месхиев) [2014, драма, военный, история, BDRip-AVC от potroks] [Лицензия] piratbit.pw

Батальонъ через торрент piratbit.pw

Раздают: 1 [ 0 KB/s ]
Размер: 1.46 GB | Добавлен: 5 лет 2 мес. назад | Торрент скачан:793 раза
Скачать  

20-08-2015 18:00 Батальонъ Скачать торрент  

Батальонъ
«Первый. Женский. Бессмертный»
Год выпуска: 2014
Страна: Россия / Корнер Ворк, Art Pictures Studio
Жанр: драма, военный, история
Продолжительность: 02:08:54
Перевод: Оригинальный
Навигация по главам: есть
Режиссер: Дмитрий Месхиев
В ролях:

Мария Аронова (Мария Бочкарева, командир «Батальона смерти»), Мария Кожевникова (Татищева), Ирина Рахманова (Фроська), Марат Башаров (Александр Керенский), Янина Малинчик (Дуся), Евгений Дятлов (Цепляев), Алёна Кучкова (Надя), Валерия Шкирандо (Вера), Николай Аузин (поручик Селезнев), Владимир Зайцев (Брусилов), Мила Макарова (Тоня), Мария Антонова (Дюймовочка)
Описание: Весна 1917-го года. Февральская революция изменила жизнь России и ход Великой войны. Государь уже отрёкся от престола. В окопах, где противостояние с немцами длится уже не один год, вовсю ведут свою пропаганду большевики. Они призывают к миру с неприятелем. Российское офицерство фактически ничего не может решить без одобрения так называемых солдатских комитетов. Армия находится на пороге окончательного разложения.
По приказу Временного правительства для поднятия боевого духа создаётся женский «Батальон смерти» под командованием георгиевского кавалера Марии Бочкарёвой. Своей службой «Батальон смерти» подаёт пример храбрости, мужества и спокойствия, поднимает дух солдат и доказывает, что каждая из этих женщин-героев достойна звания воина русской армии.

Качество: BDRip-AVC
Формат: MKV
Видео кодек: AVC
Аудио кодек: AC3
Видео: AVC, 912x382 (2.40:1), 1430 kbps, 24 fps, 0.171 bit/pixel
Аудио: AC3 / 2.0 / 48 kHz / 192 kbps / 16 bit
Релиз группы:
Автор рипа: potroks

Код:

Общее
Уникальный идентификатор : 212552239558240347307098173628910529798 (0x9FE81281ACB721869B4435161551ED06)
Полное имя : Batal'yon.2015.RUS.BDRip.x264.-HELLYWOOD.mkv
Формат : Matroska
Версия формата : Version 4 / Version 2
Размер файла : 1,46 Гбайт
Продолжительность : 2 ч. 8 м.
Общий поток : 1623 Кбит/сек
Название фильма : Батальонъ (2014) - HELLYWOOD
Дата кодирования : UTC 2015-08-20 17:40:14
Программа кодирования : mkvmerge v5.9.0 ('On The Loose') built on Dec 15 2012 16:39:58
Библиотека кодирования : libebml v1.3.0 + libmatroska v1.4.0

Видео
Идентификатор : 1
Формат : AVC
Формат/Информация : Advanced Video Codec
Профиль формата : High@L4.1
Параметр CABAC формата : Да
Параметр ReFrames формата : 12 кадров
Идентификатор кодека : V_MPEG4/ISO/AVC
Продолжительность : 2 ч. 8 м.
Битрейт : 1430 Кбит/сек
Ширина : 912 пикселей
Высота : 382 пикселя
Соотношение сторон : 2,40:1
Режим частоты кадров : Постоянный
Частота кадров : 24,000 кадра/сек
Цветовое пространство : YUV
Субдискретизация насыщенности : 4:2:0
Битовая глубина : 8 бит
Тип развёртки : Прогрессивная
Бит/(Пиксели*Кадры) : 0.171
Размер потока : 1,26 Гбайт (86%)
Заголовок : potroks
Библиотека кодирования : x264 core 146 r2538 121396c
Настройки программы : cabac=1 / ref=12 / deblock=1:-2:-2 / analyse=0x3:0x113 / me=umh / subme=11 / psy=1 / psy_rd=1.00:0.05 / mixed_ref=1 / me_range=32 / chroma_me=1 / trellis=2 / 8x8dct=1 / cqm=0 / deadzone=21,11 / fast_pskip=0 / chroma_qp_offset=-3 / threads=9 / lookahead_threads=2 / sliced_threads=0 / nr=0 / decimate=1 / interlaced=0 / bluray_compat=0 / constrained_intra=0 / bframes=13 / b_pyramid=2 / b_adapt=2 / b_bias=0 / direct=3 / weightb=1 / open_gop=0 / weightp=2 / keyint=250 / keyint_min=23 / scenecut=40 / intra_refresh=0 / rc_lookahead=140 / rc=2pass / mbtree=1 / bitrate=1430 / ratetol=1.0 / qcomp=0.70 / qpmin=0 / qpmax=69 / qpstep=4 / cplxblur=20.0 / qblur=0.5 / vbv_maxrate=14000 / vbv_bufsize=14000 / nal_hrd=none / filler=0 / ip_ratio=1.35 / aq=2:0.80
Язык : English
Default : Да
Forced : Нет

Аудио
Идентификатор : 2
Формат : AC-3
Формат/Информация : Audio Coding 3
Расширение режима : CM (complete main)
Параметр Endianness формата : Big
Идентификатор кодека : A_AC3
Продолжительность : 2 ч. 8 м.
Вид битрейта : Постоянный
Битрейт : 192 Кбит/сек
Каналы : 2 канала
Расположение каналов : Front: L R
Частота : 48,0 КГц
Метод сжатия : С потерями
Размер потока : 177 Мбайт (12%)
Заголовок : DD 2.0 @ 192 kbps
Язык : Russian
Default : Да
Forced : Нет

Меню
00:00:00.000 : en:(01)00:00:00:000
00:12:18.875 : en:(02)00:12:18:875
00:21:40.041 : en:(03)00:21:40:041
00:33:42.625 : en:(04)00:33:42:625
00:41:00.250 : en:(05)00:41:00:250
00:55:59.208 : en:(06)00:55:59:208
01:01:24.000 : en:(07)01:01:24:000
01:11:55.416 : en:(08)01:11:55:416
01:23:56.291 : en:(09)01:23:56:291
01:31:40.500 : en:(10)01:31:40:500
01:40:55.166 : en:(11)01:40:55:166
01:52:30.166 : en:(12)01:52:30:166
02:08:54.416 : en:(13)02:08:54:416

piratbit.pw



Скачать Батальонъ через торрент http://i66.fastpic.ru/big/2015/0820/fb/41ed1b681b2a1bd0c6c11bd3fdf601fb.png Скачать фильм Батальонъ через торрент бесплантно в хорошем качестве Описание: Весна 1917-го года. Февральская революция изменила жизнь России и ход Великой войны. Государь уже отрёкся от престола. В окопах, ... 8.1 10 11
Торрент: Зарегистрирован [2015-08-20 18:00] · скачан: 793 раз
Статус: √ проверено
Размер: 1.46 GB
Как cкачать? Как скачать Батальонъ через торрент | qTorrent

% Раздел Тема Автор DL S | L
Наши фильмы (Blu-ray, BD-Remux, HDDVD) [ 19.96 GB ] Батальонъ [2015 военный исторический BD-Remux Оригинал ] Бумер Скачать
1 | 0
Наши сериалы [ 2.43 GB ] Батальонъ / Серии: 1-4 из 4 [2014 военный фильм исторический фильм SATRip-AVC] aleksan55 Скачать
1 | 0
Наши фильмы (DVD фильмы) [ 6.7 GB ] Батальонъ [2015 военный история DVD9] R5 voovaz Скачать
1 | 0
Наши новые фильмы 2015 [ 2.18 GB ] Батальонъ [2015 военный история WEB-DLRip-AVC ] Ворон Скачать
1 | 0
Наши фильмы (HD, WEB-DL 720p, 1080p) [ 4.37 GB ] Батальонъ [2014 военный история BDRip 720p] [] potroks Скачать
2 | 0
Наши новые фильмы 2015 [ 1.46 GB ] Батальонъ [2015 военный исторический BDRip Оригинал ] Twi7ter Скачать
2 | 0
Наши фильмы (Blu-ray, BD-Remux, HDDVD) [ 21.5 GB ] Батальонъ [2015 военный исторический Blu-ray Оригинал ] Бумер Скачать
1 | 0

28-11-2019 20:33  

Отключить всю рекламу на сайте

20-08-2015 20:15 Батальонъ Скачать торрент  

фильм полный отстой, автору спсpiratbit.pw



    Дорогой пользователь! Огромная просьба, поблагодарите релизера, оцените раздачу и оставьте свои комментарий, если Вы скачали Батальонъ через торрент бесплатно! Внесите свою лепту в развитие PiratBit!
    Комментировать посты могут только пользователи прошедшие не сложную регистрацию
    Показать сообщения:    

    Батальонъ через торрент
    Скачать бесплатно Батальонъ
    Батальонъ скачать торрент
    Батальонъ смотреть онлайн
    Cкачать фильм Батальонъ бесплатно
    Батальонъ скачать торрент в хорошем качестве
    Батальонъ смотреть онлайн бесплатно в хорошем качестве


    Вы не можете начинать темы
    Вы не можете отвечать на сообщения
    Вы не можете редактировать свои сообщения
    Вы не можете удалять свои сообщения
    Вы не можете голосовать в опросах
    Вы не можете прикреплять файлы к сообщениям
    Вы можете скачивать файлы