Ссылка на приватное зеркало нашего сайта всего за 1$. Внимание количество ограничено!!!

2 сезон

iTunes

iTunes

1

iTunes

iTunes

iTunes

WEBRip

iTunes

30
pack

Вам бонус

ВАЖНО

!!Акция!!

Alien_RageХит недели

RePack

Horizon Zero Dawn

ИГРА 18+

pack

RePack

jed

!!Акция!!

Alien_Rage

RePack

fifa19

RePack

Assassins Creed: Odyssey

RePack

NEED FOR SPEED™ PAYBACK

4 сезон

9 сезон

Бесстыжие 9 сезон

Все сериалы

все сериалы на PB.wtf

RePack

FAR CRY 5
  

Батальонъ (Дмитрий Месхиев) [2014, драма, военный, история, BDRip 720p от potroks] [Лицензия] piratbit.pw

Батальонъ через торрент piratbit.pw

Размер: 4.37 GB | Добавлен: 5 лет 1 мес. назад | Торрент скачан:869 раз
Скачать  

20-08-2015 17:11 Батальонъ Скачать торрент  

Батальонъ
«Первый. Женский. Бессмертный»
Год выпуска: 2014
Страна: Россия / Корнер Ворк, Art Pictures Studio
Жанр: драма, военный, история
Продолжительность: 02:08:54
Перевод: Оригинальный
Навигация по главам: есть
Режиссер: Дмитрий Месхиев
В ролях:

Мария Аронова (Мария Бочкарева, командир «Батальона смерти»), Мария Кожевникова (Татищева), Ирина Рахманова (Фроська), Марат Башаров (Александр Керенский), Янина Малинчик (Дуся), Евгений Дятлов (Цепляев), Алёна Кучкова (Надя), Валерия Шкирандо (Вера), Николай Аузин (поручик Селезнев), Владимир Зайцев (Брусилов), Мила Макарова (Тоня), Мария Антонова (Дюймовочка)
Описание: Весна 1917-го года. Февральская революция изменила жизнь России и ход Великой войны. Государь уже отрёкся от престола. В окопах, где противостояние с немцами длится уже не один год, вовсю ведут свою пропаганду большевики. Они призывают к миру с неприятелем. Российское офицерство фактически ничего не может решить без одобрения так называемых солдатских комитетов. Армия находится на пороге окончательного разложения.
По приказу Временного правительства для поднятия боевого духа создаётся женский «Батальон смерти» под командованием георгиевского кавалера Марии Бочкарёвой. Своей службой «Батальон смерти» подаёт пример храбрости, мужества и спокойствия, поднимает дух солдат и доказывает, что каждая из этих женщин-героев достойна звания воина русской армии.

Качество: BDRip 720p
Формат: MKV
Видео кодек: AVC
Аудио кодек: AC3
Видео: AVC, 1280x536 (2.40:1), 4216 kbps, 24 fps, 0,256 bit/pixel
Аудио: AC3 / 5.1 / 48 kHz / 640 kbps / 16 bit
Релиз группы:
Автор рипа: potroks

Код:

General
Unique ID                                : 170930477167605642574080407724438907435 (0x8098032F2C3958AA81FEB92DF0D8EA2B)
Complete name                            : N:\Военный\Batal'yon.2015.RUS.BDRip.720p.-HELLYWOOD.mkv
Format                                   : Matroska
Format version                           : Version 4 / Version 2
File size                                : 4.37 GiB
Duration                                 : 2h 8mn
Overall bit rate                         : 4 856 Kbps
Movie name                               : Батальонъ (2015) - HELLYWOOD
Encoded date                             : UTC 2015-08-20 16:45:20
Writing application                      : mkvmerge v5.9.0 ('On The Loose') built on Dec 15 2012 16:39:58
Writing library                          : libebml v1.3.0 + libmatroska v1.4.0

Video
ID                                       : 1
Format                                   : AVC
Format/Info                              : Advanced Video Codec
Format profile                           : High@L4.1
Format settings, CABAC                   : Yes
Format settings, ReFrames                : 9 frames
Codec ID                                 : V_MPEG4/ISO/AVC
Duration                                 : 2h 8mn
Bit rate                                 : 4 216 Kbps
Width                                    : 1 280 pixels
Height                                   : 536 pixels
Display aspect ratio                     : 2.40:1
Frame rate                               : 24.000 fps
Color space                              : YUV
Chroma subsampling                       : 4:2:0
Bit depth                                : 8 bits
Scan type                                : Progressive
Bits/(Pixel*Frame)                       : 0.256
Stream size                              : 3.71 GiB (85%)
Title                                    : potroks
Writing library                          : x264 core 146 r2538 121396c
Encoding settings                        : cabac=1 / ref=9 / deblock=1:-3:-3 / analyse=0x3:0x113 / me=umh / subme=11 / psy=1 / psy_rd=1.01:0.05 / mixed_ref=1 / me_range=48 / chroma_me=1 / trellis=2 / 8x8dct=1 / cqm=0 / deadzone=21,11 / fast_pskip=0 / chroma_qp_offset=-3 / threads=9 / lookahead_threads=2 / sliced_threads=0 / nr=0 / decimate=0 / interlaced=0 / bluray_compat=0 / constrained_intra=0 / bframes=10 / b_pyramid=2 / b_adapt=2 / b_bias=0 / direct=3 / weightb=1 / open_gop=0 / weightp=2 / keyint=250 / keyint_min=23 / scenecut=40 / intra_refresh=0 / rc_lookahead=60 / rc=2pass / mbtree=0 / bitrate=4216 / ratetol=1.0 / qcomp=0.70 / qpmin=0 / qpmax=69 / qpstep=4 / cplxblur=20.0 / qblur=0.5 / vbv_maxrate=14000 / vbv_bufsize=14000 / nal_hrd=none / filler=0 / ip_ratio=1.35 / pb_ratio=1.25 / aq=1:0.70
Language                                 : Russian
Default                                  : Yes
Forced                                   : No

Audio
ID                                       : 2
Format                                   : AC-3
Format/Info                              : Audio Coding 3
Mode extension                           : CM (complete main)
Codec ID                                 : A_AC3
Duration                                 : 2h 8mn
Bit rate mode                            : Constant
Bit rate                                 : 640 Kbps
Channel(s)                               : 6 channels
Channel positions                        : Front: L C R, Side: L R, LFE
Sampling rate                            : 48.0 KHz
Bit depth                                : 16 bits
Compression mode                         : Lossy
Stream size                              : 590 MiB (13%)
Title                                    : DD 5.1 @ 640 kbps
Language                                 : Russian
Default                                  : Yes
Forced                                   : No

Menu
00:00:00.000                             : en:(01)00:00:00:000
00:12:18.875                             : en:(02)00:12:18:875
00:21:40.041                             : en:(03)00:21:40:041
00:33:42.625                             : en:(04)00:33:42:625
00:41:00.250                             : en:(05)00:41:00:250
00:55:59.208                             : en:(06)00:55:59:208
01:01:24.000                             : en:(07)01:01:24:000
01:11:55.416                             : en:(08)01:11:55:416
01:23:56.291                             : en:(09)01:23:56:291
01:31:40.500                             : en:(10)01:31:40:500
01:40:55.166                             : en:(11)01:40:55:166
01:52:30.166                             : en:(12)01:52:30:166
02:08:54.416                             : en:(13)02:08:54:416

piratbit.pw



Скачать Батальонъ через торрент http://i66.fastpic.ru/big/2015/0820/fb/41ed1b681b2a1bd0c6c11bd3fdf601fb.png Скачать фильм Батальонъ через торрент бесплантно в хорошем качестве Описание: Весна 1917-го года. Февральская революция изменила жизнь России и ход Великой войны. Государь уже отрёкся от престола. В окопах, ... 9.1 10 23
Info! Золотая раздача, скачанное не засчитывается.
Торрент: Зарегистрирован [2015-08-20 17:11] · скачан: 869 раз
Статус: √ проверено
Размер: 4.37 GB
Как cкачать? Как скачать Батальонъ через торрент | qTorrent

% Раздел Тема Автор DL S | L
Наши фильмы (Blu-ray, BD-Remux, HDDVD) [ 19.96 GB ] Батальонъ [2015 военный исторический BD-Remux Оригинал ] Бумер Скачать
1 | 0
Наши сериалы [ 2.43 GB ] Батальонъ / Серии: 1-4 из 4 [2014 военный фильм исторический фильм SATRip-AVC] aleksan55 Скачать
1 | 0
Наши фильмы (DVD фильмы) [ 6.7 GB ] Батальонъ [2015 военный история DVD9] R5 voovaz Скачать
1 | 0
Наши новые фильмы 2015 [ 2.18 GB ] Батальонъ [2015 военный история WEB-DLRip-AVC ] Ворон Скачать
1 | 0
Наши новые фильмы 2014 [ 1.46 GB ] Батальонъ [2014 военный история BDRip-AVC] [] potroks Скачать
1 | 0
Наши новые фильмы 2015 [ 1.46 GB ] Батальонъ [2015 военный исторический BDRip Оригинал ] Twi7ter Скачать
1 | 0
Наши фильмы (Blu-ray, BD-Remux, HDDVD) [ 21.5 GB ] Батальонъ [2015 военный исторический Blu-ray Оригинал ] Бумер Скачать
1 | 0

28-11-2019 20:33  

Отключить всю рекламу на сайте

21-08-2015 18:12 Батальонъ Скачать торрент  

совсем не понравилось!!!piratbit.pw



    Дорогой пользователь! Огромная просьба, поблагодарите релизера, оцените раздачу и оставьте свои комментарий, если Вы скачали Батальонъ через торрент бесплатно! Внесите свою лепту в развитие PiratBit!
    Комментировать посты могут только пользователи прошедшие не сложную регистрацию
    Показать сообщения:    

    Батальонъ через торрент
    Скачать бесплатно Батальонъ
    Батальонъ скачать торрент
    Батальонъ смотреть онлайн
    Cкачать фильм Батальонъ бесплатно
    Батальонъ скачать торрент в хорошем качестве
    Батальонъ смотреть онлайн бесплатно в хорошем качестве


    Вы не можете начинать темы
    Вы не можете отвечать на сообщения
    Вы не можете редактировать свои сообщения
    Вы не можете удалять свои сообщения
    Вы не можете голосовать в опросах
    Вы не можете прикреплять файлы к сообщениям
    Вы можете скачивать файлы