1 сезон

1 сезон

iTunes

1

КиноПоиск HD

Кинопоиск HD

iTunes

13

1 сезон

RePack

30

Новинка

ВАЖНО

ИГРА 18+

pack

RePack

MK11
pack

Легкие деньги

RePack

jed

RePack

fifa19

RePack

RDR2

RePack

NEED FOR SPEED™ PAYBACK

4 сезон

9 сезон

Бесстыжие 9 сезон

Все сериалы

все сериалы на PB.wtf

RePack

FAR CRY 5
  
Magnet ссылка

Безумный Макс: Дорога ярости (Джордж Миллер) [2015 г., боевик, фантастика, приключения, HDRip, Авторский одноголосый закадровый "А. Матвеев"] piratbit.pw

Безумный Макс: Дорога ярости через торрент piratbit.pw

Размер: 2.16 GB | Добавлен: 5 лет 8 мес. назад | Торрент скачан:15 раз
Скачать  

15-08-2015 18:24 Безумный Макс: Дорога ярости Скачать торрент  

Безумный Макс: Дорога ярости / Mad Max: Fury Road
Год выпуска: 2015
Страна: Австралия, США / Kennedy Miller Productions, Village Roadshow Pictures, Village Roadshow Pictures
Жанр: боевик, фантастика, приключения
Продолжительность: 02:00:23
Перевод: Авторский одноголосый закадровый (А. Матвеев)

Режиссер: Джордж Миллер

IMDB 8.40 (268 993)


В ролях: Том Харди, Шарлиз Терон, Николас Холт, Хью Кияс-Бёрн, Райли Кио, Роузи Хантингтон-Уайтли, Зои Кравиц, Эбби Ли, Кортни Итон, Нэйтан Джонс

Описание: Преследуемый призраками беспокойного прошлого, Макс уверен, что лучший способ выжить — скитаться в одиночестве. Несмотря на это, он присоединяется к бунтарям, бегущим через всю пустыню на боевой фуре, под предводительством военачальника Фуриосы.Они пытаются сбежать из Цитадели, страдающей от тирании Несмертного Джо, у которого они забрали кое-что очень ценное. Разъярённый военачальник бросает все свои силы на погоню за мятежниками, ступая на дорогу войны — дорогу ярости.

Качество: HDRip
Формат: AVI
Видео кодек: DivX
Аудио кодек: AC3
Видео: 720x304 (2.37:1), 23.976 fps, DivX Codec 4.x ~2118 kbps avg, 0.40 bit/pixel
Аудио: 48 kHz, AC3 Dolby Digital, 3/2 (L,C,R,l,r) + LFE ch, ~448 kbps

Общее
Полное имя : F:\кино\Безумный Макс.Дорога ярости.2015.A.HDRip.avi
Формат : AVI
Формат/Информация : Audio Video Interleave
Профиль формата : OpenDML
Размер файла : 2,16 Гбайт
Продолжительность : 2 ч. 0 м.
Общий поток : 2574 Кбит/сек
Программа кодирования : VirtualDubMod 1.5.10.3 | www.virtualdub-fr.org || (build 2550/release)
Библиотека кодирования : VirtualDubMod build 2550/release

Видео
Идентификатор : 0
Формат : MPEG-4 Visual
Профиль формата : Advanced Simple@L5
Параметр BVOP формата : 2
Параметр QPel формата : Нет
Параметр GMC формата : Без точки перехода
Параметр матрицы формата : Default (H.263)
Идентификатор кодека : DIVX
Идентификатор кодека/Информация : Project Mayo
Идентификатор кодека/Подсказка : DivX 4
Продолжительность : 2 ч. 0 м.
Битрейт : 2114 Кбит/сек
Ширина : 720 пикселей
Высота : 304 пикселя
Соотношение сторон : 2,35:1
Частота кадров : 23,976 кадра/сек
Цветовое пространство : YUV
Субдискретизация насыщенности : 4:2:0
Битовая глубина : 8 бит
Тип развёртки : Прогрессивная
Метод сжатия : С потерями
Бит/(Пиксели*Кадры) : 0.403
Размер потока : 1,78 Гбайт (82%)
Библиотека кодирования : XviD 1.2.1 (UTC 2008-12-04)

Аудио
Идентификатор : 1
Формат : AC-3
Формат/Информация : Audio Coding 3
Расширение режима : CM (complete main)
Параметр Endianness формата : Big
Идентификатор кодека : 2000
Продолжительность : 2 ч. 0 м.
Вид битрейта : Постоянный
Битрейт : 448 Кбит/сек
Каналы : 6 каналов
Расположение каналов : Front: L C R, Side: L R, LFE
Частота : 48,0 КГц
Метод сжатия : С потерями
Размер потока : 386 Мбайт (17%)
Выравнивание : Разделение по промежуткам
Продолжительность промежутка : 42 мс. (1,00 видеокадр)
Время предзагрузки промежутка : 500 мс.

piratbit.pw



Скачать Безумный Макс: Дорога ярости через торрент https://pic1.kartinco.top/images/10/g2lrn.jpg Скачать фильм Безумный Макс: Дорога ярости через торрент бесплантно в хорошем качестве Описание: Преследуемый призраками беспокойного прошлого, Макс уверен, что лучший способ выжить — скитаться в одиночестве. Несмотря на это, ... 5.5 10 2
Торрент: Зарегистрирован [2015-08-15 18:24] · скачан: 15 раз
Статус: √ проверено
Размер: 2.16 GB
Как cкачать? Как скачать Безумный Макс: Дорога ярости через торрент | UTorrent

% Раздел Тема Автор DL S | L
Ultra HD (UHD: 2K, 4K, 8K) — видео сверхвысокой чёткости [ 45.43 GB ] Безумный Макс: Дорога ярости / Mad Max: Fury Road [2015 UHD BDRip 2160p] [SDR] DUB + MVO + 6xAVO sheker187 Скачать
1 | 0
Ultra HD (UHD: 2K, 4K, 8K) — видео сверхвысокой чёткости [ 26.19 GB ] Безумный Макс: Дорога ярости / Mad Max: Fury Road [2015 UHD BDRip 2160p] sheker187 Скачать
3 | 0
Ultra HD (UHD: 2K, 4K, 8K) — видео сверхвысокой чёткости [ 53.08 GB ] Безумный Макс: Дорога ярости / Mad Max: Fury Road [2015 постапокалипсис UHD Blu-ray 2160p] DUB [] bober100 Скачать
3 | 1
Фильмы [HD 720p, 1080p] (Хороший звук DUB, MVO) [ 9.74 GB ] Безумный Макс: Дорога ярости [2015 BDRip 720p] DUB potroks Скачать
1 | 0
Фильмы [HD 720p, 1080p] (Хороший звук DUB, MVO) [ 8.1 GB ] Безумный Макс: Дорога ярости / Mad Max: Fury Road [2015 BDRip-HEVC 1080p] DUB [] bober100 Скачать
3 | 0
Фильмы с авторской озвучкой [ 2.05 GB ] Безумный Макс: Дорога ярости / Mad Max: Fury Road [2015 BDRip] [AVO] killermax2013 Скачать
1 | 0
Ultra HD (UHD: 2K, 4K, 8K) — видео сверхвысокой чёткости [ 76.51 GB ] Безумный Макс: Дорога ярости / Mad Max: Fury Road [2015 UHD BDRemux 2160p] DUB + MVO + 6xAVO sheker187 Скачать
1 | 0

28-11-2019 20:33  

Отключить всю рекламу на сайте

15-08-2015 19:51 Безумный Макс: Дорога ярости Скачать торрент  

Семпл не доступен.piratbit.pw



    Дорогой пользователь! Огромная просьба, поблагодарите релизера, оцените раздачу и оставьте свои комментарий, если Вы скачали Безумный Макс: Дорога ярости через торрент бесплатно! Внесите свою лепту в развитие PiratBit!
    Комментировать посты могут только пользователи прошедшие не сложную регистрацию
    Показать сообщения:    

    Безумный Макс: Дорога ярости через торрент
    Скачать бесплатно Безумный Макс: Дорога ярости
    Безумный Макс: Дорога ярости скачать торрент
    Безумный Макс: Дорога ярости смотреть онлайн
    Cкачать фильм Безумный Макс: Дорога ярости бесплатно
    Безумный Макс: Дорога ярости скачать торрент в хорошем качестве
    Безумный Макс: Дорога ярости смотреть онлайн бесплатно в хорошем качестве


    Вы не можете начинать темы
    Вы не можете отвечать на сообщения
    Вы не можете редактировать свои сообщения
    Вы не можете удалять свои сообщения
    Вы не можете голосовать в опросах
    Вы не можете прикреплять файлы к сообщениям
    Вы можете скачивать файлы